Чемпионат России 2014-15 / 13-й тур / Динамо – ЦСКА / НТВ+ [09.11.2014, 1080p, H.264, RU, HDTV, SAT]

Ответить на тему

Автор Сообщение

Jora879


Стаж: 6 лет

Сообщений: 350

Откуда: остров Святой Елены

О.Святой Елены

Торрент-статистика

post 09-Ноя-2014 15:20

Quote


Чемпионат России 2014-15 / 13-й тур / Динамо – ЦСКА / НТВ+

    Год Выпуска: 2014
    Вид Спорта: Футбол
    Описание: Стадион: Арена Химки (Химки, Россия)
    Главный судья: Главный судья: Игорь Федотов (Москва, Россия)
    Комментарий: Георгий Черданцев
    Язык Комментария: Русский
    Продолжительность: 14 м. + 52 м. + 1 ч. 3 м.
    Релиз: Jora879
    Качество: SAT; Формат: MPEG-4; Видео Кодек: H264; Аудио Кодек: AAC
    Видео: 1920х1080 (16/9), 25 fps, 12 Мбит/сек; Аудио: 192 Kbps, 48 KHz, 2 channels

> 1-0 <
Общее
Полное имя : 0 тайм.mp4
Формат : MPEG-4
Профиль формата : Base Media / Version 2
Идентификатор кодека : mp42
Размер файла : 1,28 Гбайт
Продолжительность : 14 м.
Режим общего битрейта : Переменный
Общий поток : 12,4 Мбит/сек
Дата кодирования : UTC 2014-11-09 10:09:28
Дата пометки : UTC 2014-11-09 10:09:28

Видео
Идентификатор : 2
Формат : AVC
Формат/Информация : Advanced Video Codec
Профиль формата : Main@L4.0
Параметр CABAC формата : Да
Параметр ReFrames формата : 2 кадра
Параметр GOP формата : M=2, N=25
Идентификатор кодека : avc1
Идентификатор кодека/Информация : Advanced Video Coding
Продолжительность : 14 м.
Продолжительность оригинала : 14 м.
Вид битрейта : Переменный
Битрейт : 11,5 Мбит/сек
Максимальный битрейт : 12,0 Мбит/сек
Ширина : 1920 пикселей
Высота : 1080 пикселей
Соотношение сторон : 16:9
Соотношение сторон в оригинале : 16:9
Режим частоты кадров : Постоянный
Частота кадров : 25,000 кадров/сек
Цветовое пространство : YUV
Субдискретизация насыщенности : 4:2:0
Битовая глубина : 8 бит
Тип развёртки : Прогрессивная
Бит/(Пиксели*Кадры) : 0.222
Размер потока : 1,19 Гбайт (93%)
Размер потока оригинала : 1,24 Гбайт (97%)
Дата кодирования : UTC 2014-11-09 10:09:28
Дата пометки : UTC 2014-11-09 10:09:28

Аудио
Идентификатор : 1
Формат : AAC
Формат/Информация : Advanced Audio Codec
Профиль формата : LC
Идентификатор кодека : 40
Продолжительность : 14 м.
Продолжительность оригинала : 14 м.
Вид битрейта : Постоянный
Битрейт : 384 Кбит/сек
Номинальный битрейт : 192 Кбит/сек
Каналы : 2 канала
Расположение каналов : Front: L R
Частота : 48,0 КГц
Метод сжатия : С потерями
Размер потока : 40,7 Мбайт (3%)
Размер потока оригинала : 40,7 Мбайт (3%)
Дата кодирования : UTC 2014-11-09 10:09:28
Дата пометки : UTC 2014-11-09 10:09:28
mdhd_Duration : 888596
Profile PM

Jora879


Стаж: 6 лет

Сообщений: 350

Откуда: остров Святой Елены

О.Святой Елены

Торрент-статистика

post 09-Ноя-2014 16:37 (спустя 1 час 17 минут)

Quote


залил 2 тайм
Profile PM

MaksFearless


Стаж: 5 лет 7 месяцев

Сообщений: 729

Россия

Торрент-статистика

post 10-Ноя-2014 04:54 (спустя 12 часов)

Quote


Jora879 спасибо за релиз 1

_________________
Оставлять благодарности - это самое малое, что мы можем сделать для релизеров. Спасибо им за все труды.
Profile PM
Ответить на тему