Молодёжное Первенство Росиии по футболу 2010 / ФК Спартак - ФК Локомотив/ Спартак ТВ [2010, SD, MPEG4, RU, WEB]

Ответить на тему

Автор Сообщение

vasilyponomarev


Стаж: 6 лет

Сообщений: 111

Откуда: Москва

Россия

Торрент-статистика

post 11-Янв-2011 22:18

Quote


Молодёжное Первенство Росиии по футболу 2010 / ФК Спартак - ФК Локомотив

Год выпуска: 2010
Вид спорта: Футбол
Участники: ФК Спартак - ФК Локомотив
Продолжительность: *

Доп. информация: Составы отсутствуют(
2-1
Video
ID : 1
Format : MPEG-4 Visual
Format profile : Simple@L1
Format settings, BVOP : No
Format settings, QPel : No
Format settings, GMC : No warppoints
Format settings, Matrix : Default (H.263)
Codec ID : 20
Duration : 1h 37mn
Bit rate mode : Variable
Bit rate : 1 063 Kbps
Width : 640 pixels
Height : 480 pixels
Display aspect ratio : 4:3
Frame rate mode : Constant
Frame rate : 23.976 fps
Color space : YUV
Chroma subsampling : 4:2:0
Bit depth : 8 bits
Scan type : Progressive
Compression mode : Lossy
Bits/(Pixel*Frame) : 0.144
Stream size : 745 MiB (87%)
Writing library : Lavc52.22.3

Audio
ID : 2
Format : AAC
Format/Info : Advanced Audio Codec
Format profile : LC
Codec ID : 40
Duration : 1h 37mn
Bit rate mode : Variable
Bit rate : 152 Kbps
Channel(s) : 2 channels
Channel positions : Front: L R
Sampling rate : 44.1 KHz
Compression mode : Lossy
Stream size : 106 MiB (12%)
01:37:54
СКРИНШОТЫ


Последний раз редактировалось: vasilyponomarev (2011-01-11 22:50), всего редактировалось 1 раз
Profile PM

s2def


Стаж: 6 лет

Сообщений: 5

Торрент-статистика

post 13-Июл-2011 12:57 (спустя 6 месяцев)

Quote


Молодёжное Первенство Росиии по футболу 2010 / ФК Спартак - ФК Локомотив
благодаря ошибке в слове сюда попал.
Profile PM
Ответить на тему