Чемпионат России 2013-14 / 6-й тур / Анжи - Краснодар / НТВ+ [24.08.2013, HD, 720p, RU, HDTVRip]

Ответить на тему

Автор Сообщение

SashaR.


Стаж: 3 года 3 месяца

Сообщений: 59

Откуда: Питер

Россия

Торрент-статистика

post 26-Авг-2013 02:59

Quote


Чемпионат России 2013-14 / 6-й тур / Анжи - Краснодар / НТВ+

Вид спорта: Футбол
Дата/Год выпуска: 24.08.2013
Язык комментариев: русский

Автор записи: SashaR.

Качество: HDTVRip
Формат видео: MP4
Видео: AVC, 1280x720, 16:9, 4500 Kbps, 50 fps
Аудио: AAC, 128 Kbps, 48.0 kHz, 2 channels

J:\Чемпионат России 2013-14. 6-й тур. Анжи - Краснодар.mp4
General
Complete name : J:\Чемпионат России 2013-14. 6-й тур. Анжи - Краснодар.mp4
Format : MPEG-4
Format profile : Base Media
Codec ID : isom
File size : 4.31 GiB
Duration : 2h 9mn
Overall bit rate mode : Variable
Overall bit rate : 4 768 Kbps
Encoded date : UTC 2013-08-25 21:40:55
Tagged date : UTC 2013-08-25 21:40:55
Writing application : Lavf51.12.1
Video #1
ID : 1
Format : AVC
Format/Info : Advanced Video Codec
Format profile : Baseline@L3.2
Format settings, CABAC : No
Format settings, ReFrames : 1 frame
Format settings, GOP : M=1, N=12
Codec ID : avc1
Codec ID/Info : Advanced Video Coding
Duration : 2h 9mn
Bit rate : 4 631 Kbps
Width : 1 280 pixels
Height : 720 pixels
Display aspect ratio : 16:9
Frame rate mode : Constant
Frame rate : 50.000 fps
Color space : YUV
Chroma subsampling : 4:2:0
Bit depth : 8 bits
Scan type : Progressive
Bits/(Pixel*Frame) : 0.101
Stream size : 4.19 GiB (97%)
Encoded date : UTC 2013-08-25 21:40:55
Tagged date : UTC 2013-08-25 21:40:55
Audio #2
ID : 2
Format : AAC
Format/Info : Advanced Audio Codec
Format profile : LC
Codec ID : 40
Duration : 2h 9mn
Bit rate mode : Variable
Bit rate : 128 Kbps
Channel count : 2 channels
Channel positions : Front: L R
Sampling rate : 44.1 KHz
Compression mode : Lossy
Stream size : 119 MiB (3%)
Encoded date : UTC 2013-08-25 21:40:55
Tagged date : UTC 2013-08-25 21:40:55
02:09:28
1:2
Profile PM

post 11-Июн-2015 12:36 (спустя 1 год 9 месяцев)


Топик был перенесен из форума Премьер-Лига 2013/14 в форум Матчи прошлых лет

fuххer666
 
Ответить на тему