Чемпионат России 2013-14 / 7-й тур / ЦСКА - Амкар / НТВ+ [30.08.2013, 1080i, H.264, RU, HDTV]

Ответить на тему

Автор Сообщение

SashaR.


Стаж: 3 года 3 месяца

Сообщений: 59

Откуда: Питер

Россия

Торрент-статистика

post 30-Авг-2013 23:29

Quote


Чемпионат России 2013-14 / 7-й тур / ЦСКА - Амкар

Вид спорта: Футбол
Дата/Год выпуска: 18.08.2013
Язык комментариев: русский

Автор записи: SashaR.

Качество: DVB-S2 Remux
Формат видео: TS
Видео: AVC, 1920x1080, 16:9, 15.9 Mbps, 25 fps
Аудио: MP2, 192 kbps, 48 kHz, 2 channels
F:РаздачиЧемпионат России 2013-14. 7-й тур. ЦСКА - Амкар.ts
General #6
ID : 6 (0x6)
Complete name : F:РаздачиЧемпионат России 2013-14. 7-й тур. ЦСКА - Амкар.ts
Format : MPEG-TS
File size : 14.7 GiB
Duration : 2h 4mn
Overall bit rate mode : Variable
Overall bit rate : 17.0 Mbps
Video #301
ID : 301 (0x12D)
Menu ID : 26001 (0x6591)
Format : AVC
Format/Info : Advanced Video Codec
Format profile : High@L4.0
Format settings, CABAC : Yes
Format settings, ReFrames : 3 frames
Codec ID : 27
Duration : 2h 4mn
Bit rate : 15.9 Mbps
Width : 1 920 pixels
Height : 1 080 pixels
Display aspect ratio : 16:9
Frame rate : 25.000 fps
Standard : Component
Color space : YUV
Chroma subsampling : 4:2:0
Bit depth : 8 bits
Scan type : Interlaced
Scan order : Top Field First
Bits/(Pixel*Frame) : 0.307
Stream size : 13.8 GiB (94%)
Color primaries : BT.709
Transfer characteristics : BT.709
Matrix coefficients : BT.709
Audio #401
ID : 401 (0x191)
Menu ID : 26001 (0x6591)
Format : MPEG Audio
Format version : Version 1
Format profile : Layer 2
Codec ID : 4
Duration : 2h 4mn
Bit rate mode : Constant
Bit rate : 192 Kbps
Channel count : 2 channels
Sampling rate : 48.0 KHz
Compression mode : Lossy
Delay relative to video : 35ms
Stream size : 171 MiB (1%)
01:57:58


Последний раз редактировалось: SashaR. (2013-08-31 22:48), всего редактировалось 1 раз
Profile PM

Horhe


Стаж: 5 лет 9 месяцев

Сообщений: 29

Украина

Торрент-статистика

post 31-Авг-2013 01:27 (спустя 1 час 58 минут)

Quote


SD???
Profile PM

post 11-Июн-2015 12:36 (спустя 1 год 9 месяцев)


Топик был перенесен из форума Премьер-Лига 2013/14 в форум Матчи прошлых лет

fuххer666
 
Ответить на тему