Чемпионат России 2013-14 / 7-й тур / ЦСКА - Амкар / НТВ+ [30.08.2013, 720p, x264, RU, HDTVRip]

Ответить на тему

Автор Сообщение

SashaR.


Стаж: 3 года 3 месяца

Сообщений: 59

Откуда: Питер

Россия

Торрент-статистика

post 31-Авг-2013 22:37

Quote


Чемпионат России 2013-14 / 7-й тур / ЦСКА - Амкар

Вид спорта: Футбол
Дата/Год выпуска: 18.08.2013
Язык комментариев: русский

Автор записи: SashaR.

Качество: HDTVRip
Формат видео: MP4
Видео: AVC, 1280x720, 16:9, 4.1 Mbps, 25 fps
Аудио: MP2, 192 kbps, 48 kHz, 2 channels
F:\Раздачи\Чемпионат России 2013-14. 7-й тур. ЦСКА - Амкар.mp4
General
Complete name : F:\Раздачи\Чемпионат России 2013-14. 7-й тур. ЦСКА - Амкар.mp4
Format : MPEG-4
Format profile : Base Media
Codec ID : isom
File size : 4.16 GiB
Duration : 2h 4mn
Overall bit rate mode : Variable
Overall bit rate : 4 783 Kbps
Encoded date : UTC 2013-08-30 19:35:11
Tagged date : UTC 2013-08-30 19:35:11
Writing application : Lavf51.12.1
Video #1
ID : 1
Format : AVC
Format/Info : Advanced Video Codec
Format profile : Baseline@L3.2
Format settings, CABAC : No
Format settings, ReFrames : 1 frame
Format settings, GOP : M=1, N=12
Codec ID : avc1
Codec ID/Info : Advanced Video Coding
Duration : 2h 4mn
Bit rate : 4 646 Kbps
Width : 1 280 pixels
Height : 720 pixels
Display aspect ratio : 16:9
Frame rate mode : Constant
Frame rate : 50.000 fps
Color space : YUV
Chroma subsampling : 4:2:0
Bit depth : 8 bits
Scan type : Progressive
Bits/(Pixel*Frame) : 0.101
Stream size : 4.04 GiB (97%)
Encoded date : UTC 2013-08-30 19:35:11
Tagged date : UTC 2013-08-30 19:35:11
Audio #2
ID : 2
Format : AAC
Format/Info : Advanced Audio Codec
Format profile : LC
Codec ID : 40
Duration : 2h 4mn
Bit rate mode : Variable
Bit rate : 128 Kbps
Channel count : 2 channels
Channel positions : Front: L R
Sampling rate : 44.1 KHz
Compression mode : Lossy
Stream size : 114 MiB (3%)
Encoded date : UTC 2013-08-30 19:35:11
Tagged date : UTC 2013-08-30 19:35:11
01:57:58


Последний раз редактировалось: SashaR. (2013-09-02 14:39), всего редактировалось 1 раз
Profile PM

Пикник


Стаж: 5 лет 8 месяцев

Сообщений: 2479

Откуда: Барнаул

Северные Марианские острова

Торрент-статистика

post 31-Авг-2013 23:13 (спустя 36 минут)

Quote


Счёт, скрины?
Profile PM

post 11-Июн-2015 12:36 (спустя 1 год 9 месяцев)


Топик был перенесен из форума Премьер-Лига 2013/14 в форум Матчи прошлых лет

fuххer666
 
Ответить на тему