Чемпионат России 2013-14 / 7-й тур / Урал - Рубин / НТВ+ [01.09.2013, DVB-S2 Remux, 1080i, RU]

Ответить на тему

Автор Сообщение

SashaR.


Стаж: 3 года 3 месяца

Сообщений: 59

Откуда: Питер

Россия

Торрент-статистика

post 03-Сен-2013 21:48

Quote


Чемпионат России 2013-14 / 7-й тур / Урал - Рубин / НТВ+

Вид спорта: Футбол
Дата/Год выпуска: 01.09.13
Язык комментариев: русский

Автор записи: SashaR.

Качество: DVB-S2 Remux
Формат видео: TS
Видео: AVC, 1920x1080, 16:9, 13.5 11.4 Mbps, 25 fps
Аудио: MP2, 192 kbps, 48 kHz, 2 channels
F:РаздачиЧемпионат России 2013-14. 7-й тур. Урал - Рубин.ts
General #6
ID : 6 (0x6)
Complete name : F:РаздачиЧемпионат России 2013-14. 7-й тур. Урал - Рубин.ts
Format : MPEG-TS
File size : 10.5 GiB
Duration : 2h 3mn
Overall bit rate mode : Variable
Overall bit rate : 12.2 Mbps
Video #301
ID : 301 (0x12D)
Menu ID : 20101 (0x4E85)
Format : AVC
Format/Info : Advanced Video Codec
Format profile : High@L4.0
Format settings, CABAC : Yes
Format settings, ReFrames : 3 frames
Codec ID : 27
Duration : 2h 3mn
Bit rate : 11.4 Mbps
Width : 1 920 pixels
Height : 1 080 pixels
Display aspect ratio : 16:9
Frame rate : 25.000 fps
Standard : Component
Color space : YUV
Chroma subsampling : 4:2:0
Bit depth : 8 bits
Scan type : Interlaced
Scan order : Top Field First
Bits/(Pixel*Frame) : 0.219
Stream size : 9.79 GiB (93%)
Color primaries : BT.709
Transfer characteristics : BT.709
Matrix coefficients : BT.709
Audio #401
ID : 401 (0x191)
Menu ID : 20101 (0x4E85)
Format : MPEG Audio
Format version : Version 1
Format profile : Layer 2
Codec ID : 4
Duration : 2h 3mn
Bit rate mode : Constant
Bit rate : 192 Kbps
Channel count : 2 channels
Sampling rate : 48.0 KHz
Compression mode : Lossy
Delay relative to video : 82ms
Stream size : 169 MiB (2%)
Language : Russian
Language, more info : Clean effects
01:41:33
Profile PM

post 11-Июн-2015 12:36 (спустя 1 год 9 месяцев)


Топик был перенесен из форума Премьер-Лига 2013/14 в форум Матчи прошлых лет

fuххer666
 
Ответить на тему