Чемпионат России 2014-15 / 4-й тур / Кубань - Амкар / НТВ+ [18.08.2014, 1080p, 50fps, H.264, RU, SATRip]

Ответить на тему

Автор Сообщение

Jora879


Стаж: 6 лет

Сообщений: 350

Откуда: остров Святой Елены

О.Святой Елены

Торрент-статистика

post 18-Авг-2014 23:03

Quote


Чемпионат России 2014-15 / 4-й тур / Кубань - Амкар / НТВ+

  • Год Выпуска: 2014
  • Вид Спорта: Футбол
  • Продолжительность: 1час 54мин
  • Комментарий: Профессиональный
  • Язык Комментария: Русский (Роман Нагучев)
  • Релиз: Jora879
  • Качество: SATRip
  • Формат: MPEG-4
  • Видео Кодек: H264
  • Аудио Кодек: AAC
  • Видео: 1080p, 50 fps, 16 Мбит/сек
  • Аудио: 256 Kbps, 48 KHz, 2 channels

> 1-0 <
General
Complete name : Кубань - Амкар.mp4
Format : MPEG-4
Format profile : Base Media / Version 2
Codec ID : mp42
File size : 13.2 GiB
Duration : 1h 54mn
Overall bit rate mode : Constant
Overall bit rate : 16.4 Mbps
Encoded date : UTC 2014-08-18 16:58:39
Tagged date : UTC 2014-08-18 16:58:39

Video
ID : 2
Format : AVC
Format/Info : Advanced Video Codec
Format profile : Main@L4.2
Format settings, CABAC : Yes
Format settings, ReFrames : 2 frames
Format settings, GOP : M=2, N=25
Codec ID : avc1
Codec ID/Info : Advanced Video Coding
Duration : 1h 54mn
Source duration : 1h 54mn
Bit rate mode : Constant
Bit rate : 16.0 Mbps
Width : 1 920 pixels
Height : 1 080 pixels
Display aspect ratio : 16:9
Original display aspect ratio : 16:9
Frame rate mode : Variable
Frame rate : 50.000 fps
Minimum frame rate : 16.667 fps
Maximum frame rate : 50.000 fps
Color space : YUV
Chroma subsampling : 4:2:0
Bit depth : 8 bits
Scan type : Progressive
Bits/(Pixel*Frame) : 0.154
Stream size : 12.8 GiB (98%)
Source stream size : 12.8 GiB (98%)
Language : English
Encoded date : UTC 2014-08-18 16:58:39
Tagged date : UTC 2014-08-18 16:58:39

Audio
ID : 1
Format : AAC
Format/Info : Advanced Audio Codec
Format profile : LC
Codec ID : 40
Duration : 1h 54mn
Source duration : 1h 54mn
Bit rate mode : Constant
Bit rate : 394 Kbps
Nominal bit rate : 256 Kbps
Channel(s) : 2 channels
Channel positions : Front: L R
Sampling rate : 48.0 KHz
Compression mode : Lossy
Stream size : 323 MiB (2%)
Source stream size : 323 MiB (2%)
Language : English
Encoded date : UTC 2014-08-18 16:58:39
Tagged date : UTC 2014-08-18 16:58:39
mdhd_Duration : 6892149


Последний раз редактировалось: Jora879 (2014-08-19 09:31), всего редактировалось 1 раз
Profile PM

Пикник


Стаж: 5 лет 8 месяцев

Сообщений: 2479

Откуда: Барнаул

Северные Марианские острова

Торрент-статистика

post 18-Авг-2014 23:37 (спустя 34 минуты)

Quote


Jora879, оформите по правилам вот эту раздачу Тыц
Profile PM

Jora879


Стаж: 6 лет

Сообщений: 350

Откуда: остров Святой Елены

О.Святой Елены

Торрент-статистика

post 18-Авг-2014 23:51 (спустя 13 минут)

Quote


Оформил.
Profile PM
Ответить на тему