NHL 2015-2016 / RS / Los Angeles Kings vs Colorado Avalanche AFN Sports HD [04.01.2016, 720p, 60 fps, H.264, ENG, SAT]

Ответить на тему

Автор Сообщение

K. Valera


Стаж: 5 лет 7 месяцев

Сообщений: 873

Украина

Торрент-статистика

post 06-Янв-2016 12:57

Quote


NHL 2015-2016 / RS / Los Angeles Kings vs Colorado Avalanche AFN Sports HD

Год выпуска: 04.01.2016
Вид спорта: Хоккей
Релиз:
Aвтор рипа: K. Valera
Продолжительность: *
Канал:
Комментарий: Профессиональный
Язык комментариев: Английский
Качество: HDTV / Формат: *.ts / Видео Кодек: AVC / Аудио Кодек: MPEG
Видео: 1280x720 (16/9), 59.940 fps, 3 911 Kbps
Аудио: 128 Kbps, 48 KHz, MPEG, mp2 2.0 channels
Запись видео: Openbox SX6 HD
Программа корректировки видео: Cypheros TS-Doctor ver. 1.2.22
00:46:03 + 00:41:53 + 00:35:27

Код:

General
ID                             : 1 (0x1)
Complete name                  : E:\Recordings\NHL 2015-2016 RS Los Angeles Kings vs Colorado Avalanche AFN Sport HD\01 period.ts
Format                         : MPEG-TS
File size                      : 1.37 GiB
Duration                       : 46mn 2s
Overall bit rate mode          : Variable
Overall bit rate               : 4 251 Kbps

Video
ID                             : 1410 (0x582)
Menu ID                        : 11 (0xB)
Format                         : AVC
Format/Info                    : Advanced Video Codec
Format profile                 : High@L4
Format settings, CABAC         : Yes
Format settings, ReFrames      : 5 frames
Format settings, GOP           : M=16, N=32
Codec ID                       : 27
Duration                       : 46mn 2s
Bit rate                       : 3 911 Kbps
Width                          : 1 280 pixels
Height                         : 720 pixels
Display aspect ratio           : 16:9
Frame rate                     : 59.940 fps
Color space                    : YUV
Chroma subsampling             : 4:2:0
Bit depth                      : 8 bits
Scan type                      : Progressive
Bits/(Pixel*Frame)             : 0.071
Stream size                    : 1.26 GiB (92%)
Color range                    : Limited
Color primaries                : BT.709
Transfer characteristics       : BT.709
Matrix coefficients            : BT.709

Audio
ID                             : 1400 (0x578)
Menu ID                        : 11 (0xB)
Format                         : MPEG Audio
Format version                 : Version 1
Format profile                 : Layer 2
Codec ID                       : 4
Duration                       : 46mn 3s
Bit rate mode                  : Constant
Bit rate                       : 128 Kbps
Channel(s)                     : 2 channels
Sampling rate                  : 48.0 KHz
Compression mode               : Lossy
Delay relative to video        : 73ms
Stream size                    : 42.2 MiB (3%)

_________________
Bitcoin: 1C5RGE4438bq3VfVUEfcw63rmYrb6Sgr29
Profile PM

oliver30


Стаж: 6 лет 8 месяцев

Сообщений: 1

Торрент-статистика

post 07-Янв-2016 12:34 (спустя 23 часа)

Quote


сидеры ! АУ! появиться кто?
Profile PM
Ответить на тему