NHL 2015-2016 / RS / Arizona Coyotes vs. Vancouver Canucks AFN Sports HD [04.01.2016, 720p, 60 fps, H.264, ENG, SAT]

Ответить на тему

Автор Сообщение

K. Valera


Стаж: 5 лет 7 месяцев

Сообщений: 873

Украина

Торрент-статистика

post 06-Янв-2016 14:04

Quote


NHL 2015-2016 / RS / Arizona Coyotes vs. Vancouver Canucks AFN Sports HD

Год выпуска: 04.01.2016
Вид спорта: Хоккей
Релиз:
Aвтор рипа: K. Valera
Продолжительность: *
Канал:
Комментарий: Профессиональный
Язык комментариев: Английский
Качество: HDTV / Формат: *.ts / Видео Кодек: AVC / Аудио Кодек: MPEG
Видео: 1280x720 (16/9), 59.940 fps, 3 919 Kbps
Аудио: 128 Kbps, 48 KHz, MPEG, mp2 2.0 channels
Запись видео: Openbox SX6 HD
Программа корректировки видео: Cypheros TS-Doctor ver. 1.2.22
00:38:32 + 00:38:04 + 00:53:27

Код:

General
ID                             : 1 (0x1)
Complete name                  : E:\NHL 2015-2016 RS Arizona Coyotes vs Vancouver Canucks AFN Sport HD\01 period.ts
Format                         : MPEG-TS
File size                      : 1.15 GiB
Duration                       : 38mn 31s
Overall bit rate mode          : Variable
Overall bit rate               : 4 259 Kbps

Video
ID                             : 1410 (0x582)
Menu ID                        : 11 (0xB)
Format                         : AVC
Format/Info                    : Advanced Video Codec
Format profile                 : High@L4
Format settings, CABAC         : Yes
Format settings, ReFrames      : 5 frames
Codec ID                       : 27
Duration                       : 38mn 31s
Bit rate                       : 3 919 Kbps
Width                          : 1 280 pixels
Height                         : 720 pixels
Display aspect ratio           : 16:9
Frame rate                     : 59.940 fps
Color space                    : YUV
Chroma subsampling             : 4:2:0
Bit depth                      : 8 bits
Scan type                      : Progressive
Bits/(Pixel*Frame)             : 0.071
Stream size                    : 1.05 GiB (92%)
Color range                    : Limited
Color primaries                : BT.709
Transfer characteristics       : BT.709
Matrix coefficients            : BT.709

Audio
ID                             : 1400 (0x578)
Menu ID                        : 11 (0xB)
Format                         : MPEG Audio
Format version                 : Version 1
Format profile                 : Layer 2
Codec ID                       : 4
Duration                       : 38mn 31s
Bit rate mode                  : Constant
Bit rate                       : 128 Kbps
Channel(s)                     : 2 channels
Sampling rate                  : 48.0 KHz
Compression mode               : Lossy
Delay relative to video        : 160ms
Stream size                    : 35.3 MiB (3%)

_________________
Bitcoin: 1C5RGE4438bq3VfVUEfcw63rmYrb6Sgr29
Profile PM
Ответить на тему