NHL 2015-2016 / RS / Montréal Canadiens vs. Philadelphia Flyers AFN Sports HD [05.01.2016, 720p, 60 fps, H.264, ENG, SAT]

Ответить на тему

Автор Сообщение

K. Valera


Стаж: 5 лет 6 месяцев

Сообщений: 873

Украина

Торрент-статистика

post 10-Янв-2016 17:20

Quote


NHL 2015-2016 / RS / Montréal Canadiens vs. Philadelphia Flyers AFN Sports HD

Год выпуска: 05.01.2016
Вид спорта: Хоккей
Релиз:
Aвтор рипа: K. Valera
Продолжительность: *
Канал:
Комментарий: Профессиональный
Язык комментариев: Английский
Качество: HDTV / Формат: *.ts / Видео Кодек: AVC / Аудио Кодек: MPEG
Видео: 1280x720 (16/9), 59.940 fps, 3 936 Kbps
Аудио: 128 Kbps, 48 KHz, MPEG, mp2 2.0 channels
Запись видео: Openbox SX6 HD
Программа корректировки видео: Cypheros TS-Doctor ver. 1.2.22
01:07:43 + 00:40:30 + 00:40:33

Код:

General
ID                             : 1 (0x1)
Complete name                  : D:\111\NHL 2015-2016 RS Montréal Canadiens vs. Philadelphia Flyers AFN Sports HD\01 period.ts
Format                         : MPEG-TS
File size                      : 2.02 GiB
Duration                       : 1h 7mn
Overall bit rate mode          : Variable
Overall bit rate               : 4 276 Kbps

Video
ID                             : 1410 (0x582)
Menu ID                        : 11 (0xB)
Format                         : AVC
Format/Info                    : Advanced Video Codec
Format profile                 : High@L4
Format settings, CABAC         : Yes
Format settings, ReFrames      : 5 frames
Format settings, GOP           : M=16, N=32
Codec ID                       : 27
Duration                       : 1h 7mn
Bit rate                       : 3 936 Kbps
Width                          : 1 280 pixels
Height                         : 720 pixels
Display aspect ratio           : 16:9
Frame rate                     : 59.940 fps
Color space                    : YUV
Chroma subsampling             : 4:2:0
Bit depth                      : 8 bits
Scan type                      : Progressive
Bits/(Pixel*Frame)             : 0.071
Stream size                    : 1.86 GiB (92%)
Color range                    : Limited
Color primaries                : BT.709
Transfer characteristics       : BT.709
Matrix coefficients            : BT.709

Audio
ID                             : 1400 (0x578)
Menu ID                        : 11 (0xB)
Format                         : MPEG Audio
Format version                 : Version 1
Format profile                 : Layer 2
Codec ID                       : 4
Duration                       : 1h 7mn
Bit rate mode                  : Constant
Bit rate                       : 128 Kbps
Channel(s)                     : 2 channels
Sampling rate                  : 48.0 KHz
Compression mode               : Lossy
Delay relative to video        : 88ms
Stream size                    : 62.0 MiB (3%)

Text
ID                             : 1410 (0x582)-CC1
Menu ID                        : 11 (0xB)
Format                         : EIA-608
Muxing mode                    : SCTE 128 / DTVCC Transport
Muxing mode, more info         : Muxed in Video #1
Duration                       : 1h 7mn
Bit rate mode                  : Constant
Stream size                    : 0.00 Byte (0%)

_________________
Bitcoin: 1C5RGE4438bq3VfVUEfcw63rmYrb6Sgr29
Profile PM
Ответить на тему