КХЛ 2012-13 / РЧ / Витязь - ЦСКА / Подмосковье [17.09.2012, SD, XviD, RU, SAT]

Ответить на тему

Автор Сообщение

strangersan


Стаж: 6 лет 9 месяцев

Сообщений: 4195

Откуда: Землянин

Сент-Винсент и Гренадины

Торрент-статистика

post 18-Сен-2012 10:15

Quote



КХЛ 12/13, Регулярный чемпионат
Витязь (Чехов) - ЦСКА (Москва) / Подмосковье

Дата матча: 17 сентября 2012
Вид спорта: Хоккей
Участники: Витязь Чехов - ЦСКА Москва
Комментарий: Профессиональный
Язык комментариев:
Комментаторы: Владимир Дягтерёв

Канал:
Качество: SATRip
Формат: AVI
Видео кодек: XviD
Аудио кодек: MP1
Видео: XviD; 2 762 Kbps; 704*528; 25.000 fps; 4/3
Аудио: MPEG Audio; 192.0 Kbps; 2 channels; 48.0 KHz


02:02:49

Главные судьи:
Алексей АНИСИМОВ (Москва)
Вячеслав БУЛАНОВ (Москва)

Линейные судьи:
Сергей МИХАЕВИЧ (Санкт-Петербург)
Александр НЕСТЕРОВ (Санкт-Петербург)




Полное имя : \2012.09.17_KHL_Vityaz-Cska_[rgfootball.net].avi
Формат : AVI
Формат/Информация : Audio Video Interleave
Профиль формата : OpenDML
Размер файла : 2,54 Гбайт
Продолжительность : 2 ч. 2 м.
Общий поток : 2965 Кбит/сек
Программа кодирования : VirtualDubMod 1.5.10.3 | www.virtualdub-fr.org || (build 2550/release)
Библиотека кодирования : VirtualDubMod build 2550/release

Видео
Идентификатор : 0
Формат : MPEG-4 Visual
Профиль формата : Advanced Simple@L5
Параметр BVOP формата : 2
Параметр QPel формата : Нет
Параметр GMC формата : Без точки перехода
Параметр матрицы формата : Default (MPEG)
Режим смешивания : Сжатый битовый поток
Идентификатор кодека : XVID
Идентификатор кодека/Подсказка : XviD
Продолжительность : 2 ч. 2 м.
Битрейт : 2762 Кбит/сек
Ширина : 704 пикселя
Высота : 528 пикселей
Соотношение сторон : 4:3
Частота кадров : 25,000 кадров/сек
Цветовое пространство : YUV
Субдискретизация насыщенности : 4:2:0
Битовая глубина : 8 бит
Тип развёртки : Прогрессивная
Метод сжатия : С потерями
Бит/(Пиксели*Кадры) : 0.297
Размер потока : 2,37 Гбайт (93%)
Библиотека кодирования : XviD 1.2.1 (UTC 2008-12-04)

Аудио
Идентификатор : 1
Формат : MPEG Audio
Версия формата : Version 1
Профиль формата : Layer 2
Идентификатор кодека : 50
Продолжительность : 2 ч. 2 м.
Вид битрейта : Постоянный
Битрейт : 192 Кбит/сек
Каналы : 2 канала
Частота : 48,0 КГц
Метод сжатия : С потерями
Размер потока : 169 Мбайт (6%)
Выравнивание : Соединение по промежуткам
Продолжительность промежутка : 40 мс. (1,00 видеокадр)
Время предзагрузки промежутка : 504 мс.


_________________
Раздачи долго не храню.
Profile PM

post 07-Июл-2014 01:16 (спустя 1 год 9 месяцев)


Топик был перенесен из форума КХЛ 2012/13 в форум КХЛ до 2013 г.

fuххer666
 
Ответить на тему