КХЛ 2012-13 / РЧ / Ак Барс - Автомобилист / ТНВ [24.09.2012, SD, MPEG2, RU, SAT]

Ответить на тему

Автор Сообщение

strangersan


Стаж: 5 лет 9 месяцев

Сообщений: 3902

Откуда: Землянин

Сент-Винсент и Гренадины

Торрент-статистика

post 25-Сен-2012 12:04

Quote



КХЛ 12/13, Регулярный чемпионат
Ак Барс (Казань) - Автомобилист (Екатеринбург)
Татарстан Новый Век (ТНВ)

Дата матча: 24 сентября 2012
Вид спорта: Хоккей
Участники: Ак Барс Казань - Автомобилист Екатеринбург
Комментарий: Профессиональный
Язык комментариев:
Комментаторы: Александр Норден и ...

Канал:
Качество: SAT
Формат: TS
Видео кодек: MPEG2
Аудио кодек: MP1
Видео: XviD; 4 811 Kbps; 720*576; 25.000 fps; 4/3
Аудио: MPEG Audio; 192.0 Kbps; 2 channels; 48.0 KHz

Внимание!!! При просмотре в плейере укажите соотношение сторон 16/9 для более приятного просмотра.
Канал ТНВ показывал в формате 4/3 картинку 16/9.

02:01:22





Полное имя : \2012.09.24_KHL_AkBars-Avtomobilist_[rgfootball.net].ts
Формат : MPEG-TS
Размер файла : 4,42 Гбайт
Продолжительность : 2 ч. 1 м.
Режим общего битрейта : Переменный
Общий поток : 5217 Кбит/сек

Видео
Идентификатор : 320 (0x140)
Идентификатор меню : 1 (0x1)
Формат : MPEG Video
Версия формата : Version 2
Профиль формата : Main@Main
Параметр BVOP формата : Да
Параметр матрицы формата : Выборочная
Идентификатор кодека : 2
Продолжительность : 2 ч. 1 м.
Вид битрейта : Переменный
Битрейт : 4811 Кбит/сек
Ширина : 720 пикселей
Высота : 576 пикселей
Соотношение сторон : 4:3
Частота кадров : 25,000 кадров/сек
Стандарт вещания : PAL
Цветовое пространство : YUV
Субдискретизация насыщенности : 4:2:0
Битовая глубина : 8 бит
Тип развёртки : Чересстрочная
Порядок развёртки : Верхнее поле первое
Метод сжатия : С потерями
Бит/(Пиксели*Кадры) : 0.464
Размер потока : 4,04 Гбайт (91%)

Аудио
Идентификатор : 401 (0x191)
Идентификатор меню : 1 (0x1)
Формат : MPEG Audio
Версия формата : Version 1
Профиль формата : Layer 2
Идентификатор кодека : 3
Продолжительность : 2 ч. 1 м.
Вид битрейта : Постоянный
Битрейт : 192 Кбит/сек
Каналы : 2 канала
Частота : 48,0 КГц
Метод сжатия : С потерями
Размер потока : 167 Мбайт (4%)
Язык : English


_________________
Раздачи долго не храню.
Profile PM

post 07-Июл-2014 01:16 (спустя 1 год 9 месяцев)


Топик был перенесен из форума КХЛ 2012/13 в форум КХЛ до 2013 г.

fuххer666
 
Ответить на тему