КХЛ 2012-13 / РЧ / Атлант - Югра / Подмосковье [08.10.2012, SD, MPEG2, RU, SAT]

Ответить на тему

Автор Сообщение

strangersan


Стаж: 5 лет 9 месяцев

Сообщений: 3901

Откуда: Землянин

Сент-Винсент и Гренадины

Торрент-статистика

post 09-Окт-2012 10:17

Quote



КХЛ 12/13, Регулярный чемпионат
Атлант (Московская область) - Югра (Ханты-Мансийск) / Подмосковье

Дата матча: 08 октября 2012
Вид спорта: Хоккей
Участники: Атлант - Югра
Комментарий: Профессиональный
Язык комментариев:
Комментаторы: Владимир Дягтерёв

Канал:
Качество: SAT
Формат: TS
Видео кодек: MPEG2
Аудио кодек: MP1
Видео: MPEG Video 2; 4 244 Kbps; 720*576; 25.000 fps; 4/3
Аудио: MPEG Audio; 192.0 Kbps; 2 channels; 48.0 KHz


01:53:35





Полное имя : F:\_treker_\rgfootball.net\2012.10.08_KHL_Atlant-Ugra_[rgfootball.net].ts
Формат : MPEG-TS
Размер файла : 3,70 Гбайт
Продолжительность : 1 ч. 53 м.
Режим общего битрейта : Переменный
Общий поток : 4669 Кбит/сек

Видео
Идентификатор : 329 (0x149)
Идентификатор меню : 1 (0x1)
Формат : MPEG Video
Версия формата : Version 2
Профиль формата : Main@Main
Параметр BVOP формата : Да
Параметр матрицы формата : Выборочная
Параметр GOP формата : M=1, N=38
Идентификатор кодека : 2
Продолжительность : 1 ч. 53 м.
Вид битрейта : Переменный
Битрейт : 4244 Кбит/сек
Максимальный битрейт : 15,0 Мбит/сек
Ширина : 720 пикселей
Высота : 576 пикселей
Соотношение сторон : 4:3
Частота кадров : 25,000 кадров/сек
Стандарт вещания : PAL
Цветовое пространство : YUV
Субдискретизация насыщенности : 4:2:0
Битовая глубина : 8 бит
Тип развёртки : Чересстрочная
Порядок развёртки : Верхнее поле первое
Метод сжатия : С потерями
Бит/(Пиксели*Кадры) : 0.409
Размер потока : 3,37 Гбайт (91%)

Аудио
Идентификатор : 409 (0x199)
Идентификатор меню : 1 (0x1)
Формат : MPEG Audio
Версия формата : Version 1
Профиль формата : Layer 2
Идентификатор кодека : 3
Продолжительность : 1 ч. 53 м.
Вид битрейта : Постоянный
Битрейт : 192 Кбит/сек
Каналы : 2 канала
Частота : 48,0 КГц
Метод сжатия : С потерями
Размер потока : 156 Мбайт (4%)
Язык : English


_________________
Раздачи долго не храню.
Profile PM

post 07-Июл-2014 01:16 (спустя 1 год 8 месяцев)


Топик был перенесен из форума КХЛ 2012/13 в форум КХЛ до 2013 г.

fuххer666
 
Ответить на тему