КХЛ 2012-13 / РЧ / Витязь - Барыс / Подмосковье [23.10.2012, SD, MPEG2, RU, SAT]

Ответить на тему

Автор Сообщение

strangersan


Стаж: 6 лет 8 месяцев

Сообщений: 4193

Откуда: Землянин

Сент-Винсент и Гренадины

Торрент-статистика

post 23-Окт-2012 10:05

Quote



КХЛ 12/13, Регулярный чемпионат
Витязь (Чехов, Россия) - Барыс (Астана, Казахстан) / Подмосковье

Дата матча: 22 октября 2012
Вид спорта: Хоккей
Участники: Витязь Чехов - Барыс Астана
Комментарий: Профессиональный
Язык комментариев:
Комментаторы: Владимир Дягтерёв

Канал:
Качество: SAT
Формат: TS
Видео кодек: MPEG2
Аудио кодек: MP1
Видео: MPEG Video 2; 4 156 Kbps; 720*576; 25.000 fps; 4/3
Аудио: MPEG Audio; 192.0 Kbps; 2 channels; 48.0 KHz


01:55:49

Главные судьи:
Евгений РОМАСЬКО (Тверь)
Денис БОНДАРЬ (Магнитогорск)

Линейные судьи:
Александр ЗАХАРЕНКОВ (Москва)
Дмитрий СИВОВ (Москва)




Полное имя : \2012.10.22_KHL_Vityaz-Barys_[rgfootball.net].ts
Формат : MPEG-TS
Размер файла : 3,70 Гбайт
Продолжительность : 1 ч. 55 м.
Режим общего битрейта : Переменный
Общий поток : 4576 Кбит/сек

Видео
Идентификатор : 329 (0x149)
Идентификатор меню : 1 (0x1)
Формат : MPEG Video
Версия формата : Version 2
Профиль формата : Main@Main
Параметр BVOP формата : Да
Параметр матрицы формата : Выборочная
Идентификатор кодека : 2
Продолжительность : 1 ч. 55 м.
Вид битрейта : Переменный
Битрейт : 4156 Кбит/сек
Максимальный битрейт : 15,0 Мбит/сек
Ширина : 720 пикселей
Высота : 576 пикселей
Соотношение сторон : 4:3
Частота кадров : 25,000 кадров/сек
Стандарт вещания : PAL
Цветовое пространство : YUV
Субдискретизация насыщенности : 4:2:0
Битовая глубина : 8 бит
Тип развёртки : Чересстрочная
Порядок развёртки : Верхнее поле первое
Метод сжатия : С потерями
Бит/(Пиксели*Кадры) : 0.401
Размер потока : 3,36 Гбайт (91%)

Аудио
Идентификатор : 409 (0x199)
Идентификатор меню : 1 (0x1)
Формат : MPEG Audio
Версия формата : Version 1
Профиль формата : Layer 2
Идентификатор кодека : 3
Продолжительность : 1 ч. 55 м.
Вид битрейта : Постоянный
Битрейт : 192 Кбит/сек
Каналы : 2 канала
Частота : 48,0 КГц
Метод сжатия : С потерями
Размер потока : 159 Мбайт (4%)
Язык : English


_________________
Раздачи долго не храню.
Profile PM

Allycya


Стаж: 5 лет 7 месяцев

Сообщений: 286

Россия

Торрент-статистика

post 16-Ноя-2012 15:57 (спустя 24 дня)

Quote


А Витязь Динамо москва и Витязь СКА не будет ?
Profile PM

post 07-Июл-2014 01:15 (спустя 1 год 7 месяцев)


Топик был перенесен из форума КХЛ 2012/13 в форум КХЛ до 2013 г.

fuххer666
 
Ответить на тему