КХЛ 2012-13 / РЧ / Витязь - Металлург Магнитогорск / Подмосковье [28.11.2012, SD, MPEG2, RU, SAT]

Ответить на тему

Автор Сообщение

strangersan


Стаж: 6 лет 8 месяцев

Сообщений: 4193

Откуда: Землянин

Сент-Винсент и Гренадины

Торрент-статистика

post 29-Ноя-2012 09:46

Quote



КХЛ 12/13, Регулярный чемпионат
Витязь (Чехов) - Металлург (Магнитогорск) / Подмосковье

Дата матча: 28 ноября 2012
Вид спорта: Хоккей
Участники: Витязь Чехов - Металлург Магнитогорск
Комментарий: Профессиональный
Язык комментариев:
Комментаторы: Владимир Дягтерёв

Канал:
Качество: SAT
Формат: TS
Видео кодек: MPEG2
Аудио кодек: MP1
Видео: MPEG Video 2; 4 060 Kbps; 720*576; 25.000 fps; 4/3
Аудио: MPEG Audio; 192.0 Kbps; 2 channels; 48.0 KHz


02:03:34





Полное имя : \2012.11.28_KHL_Vityaz-Metallurg_Mg_[rgfootball.net].ts
Формат : MPEG-TS
Размер файла : 3,87 Гбайт
Продолжительность : 2 ч. 3 м.
Режим общего битрейта : Переменный
Общий поток : 4478 Кбит/сек

Видео
Идентификатор : 329 (0x149)
Идентификатор меню : 1 (0x1)
Формат : MPEG Video
Версия формата : Version 2
Профиль формата : Main@Main
Параметр BVOP формата : Да
Параметр матрицы формата : Выборочная
Параметр GOP формата : M=3, N=36
Идентификатор кодека : 2
Продолжительность : 2 ч. 3 м.
Вид битрейта : Переменный
Битрейт : 4063 Кбит/сек
Максимальный битрейт : 15,0 Мбит/сек
Ширина : 720 пикселей
Высота : 576 пикселей
Соотношение сторон : 4:3
Частота кадров : 25,000 кадров/сек
Стандарт вещания : PAL
Цветовое пространство : YUV
Субдискретизация насыщенности : 4:2:0
Битовая глубина : 8 бит
Тип развёртки : Чересстрочная
Порядок развёртки : Верхнее поле первое
Метод сжатия : С потерями
Бит/(Пиксели*Кадры) : 0.392
Размер потока : 3,51 Гбайт (91%)

Аудио
Идентификатор : 409 (0x199)
Идентификатор меню : 1 (0x1)
Формат : MPEG Audio
Версия формата : Version 1
Профиль формата : Layer 2
Идентификатор кодека : 3
Продолжительность : 2 ч. 3 м.
Вид битрейта : Постоянный
Битрейт : 192 Кбит/сек
Каналы : 2 канала
Частота : 48,0 КГц
Метод сжатия : С потерями
Размер потока : 170 Мбайт (4%)
Язык : English


_________________
Раздачи долго не храню.
Profile PM

Allycya


Стаж: 5 лет 7 месяцев

Сообщений: 286

Россия

Торрент-статистика

post 29-Ноя-2012 14:25 (спустя 4 часа)

Quote


Спасибо! Все таки в Чехове не передаваемая атмосфера на хоккейных матчах...
В Подольске такого не было..и команда реально начинает играть
Profile PM

samoilovdevil3


Стаж: 5 лет 2 месяца

Сообщений: 7

Откуда: Урал

Россия

Торрент-статистика

post 22-Дек-2012 23:19 (спустя 23 дня)

Quote


Просидируйте п-та , а то 7 сидеров и не качает
Profile PM

post 07-Июл-2014 01:15 (спустя 1 год 6 месяцев)


Топик был перенесен из форума КХЛ 2012/13 в форум КХЛ до 2013 г.

fuххer666
 
Ответить на тему