КХЛ 2012-13 / РЧ / Витязь - Ак Барс / Подмосковье [17.02.2013, SD, XviD, RU, SAT]

Ответить на тему

Автор Сообщение

strangersan


Стаж: 6 лет 8 месяцев

Сообщений: 4193

Откуда: Землянин

Сент-Винсент и Гренадины

Торрент-статистика

post 20-Фев-2013 18:18

Quote



КХЛ 12/13, Регулярный чемпионат
Витязь (Чехов) - Ак Барс (Казань) / Подмосковье

Дата матча: 17 февраля 2013
Вид спорта: Хоккей
Участники: Витязь Чехов - Ак Барс Казань
Комментарий: Профессиональный
Язык комментариев:
Комментаторы:

Канал:
Качество: SATRip
Формат: AVI
Видео кодек: XviD
Аудио кодек: MP1
Видео: XviD;~ 2 500 Kbps; 704*528; 25.000 fps; 4/3
Аудио: MPEG Audio; 192.0 Kbps; 2 channels; 48.0 KHz


01:54:34

Главные судьи:

Линейные судьи:


[img][/img][img][/img]

[img][/img]

[/align]

Полное имя : \2013.02.17_KHL_Vityaz-AkBars_[rgfootball.net].avi
Формат : AVI
Формат/Информация : Audio Video Interleave
Профиль формата : OpenDML
Размер файла : 2,16 Гбайт
Продолжительность : 1 ч. 54 м.
Общий поток : 2701 Кбит/сек
Программа кодирования : VirtualDubMod 1.5.10.3 | www.virtualdub-fr.org || (build 2550/release)
Библиотека кодирования : VirtualDubMod build 2550/release

Видео
Идентификатор : 0
Формат : MPEG-4 Visual
Профиль формата : Advanced Simple@L5
Параметр BVOP формата : 2
Параметр QPel формата : Нет
Параметр GMC формата : Без точки перехода
Параметр матрицы формата : Default (MPEG)
Режим смешивания : Сжатый битовый поток
Идентификатор кодека : XVID
Идентификатор кодека/Подсказка : XviD
Продолжительность : 1 ч. 54 м.
Битрейт : 2496 Кбит/сек
Ширина : 704 пикселя
Высота : 528 пикселей
Соотношение сторон : 4:3
Частота кадров : 25,000 кадров/сек
Цветовое пространство : YUV
Субдискретизация насыщенности : 4:2:0
Битовая глубина : 8 бит
Тип развёртки : Прогрессивная
Метод сжатия : С потерями
Бит/(Пиксели*Кадры) : 0.269
Размер потока : 2,00 Гбайт (92%)
Библиотека кодирования : XviD 1.2.1 (UTC 2008-12-04)

Аудио
Идентификатор : 1
Формат : MPEG Audio
Версия формата : Version 1
Профиль формата : Layer 2
Идентификатор кодека : 50
Продолжительность : 1 ч. 54 м.
Вид битрейта : Постоянный
Битрейт : 192 Кбит/сек
Каналы : 2 канала
Частота : 48,0 КГц
Метод сжатия : С потерями
Размер потока : 157 Мбайт (7%)
Выравнивание : Соединение по промежуткам
Продолжительность промежутка : 40 мс. (1,00 видеокадр)
Время предзагрузки промежутка : 504 мс.


_________________
Раздачи долго не храню.
Profile PM

strangersan


Стаж: 6 лет 8 месяцев

Сообщений: 4193

Откуда: Землянин

Сент-Винсент и Гренадины

Торрент-статистика

post 20-Фев-2013 18:20 (спустя 1 минута)

Quote


Тему дооформлю позже!!!

_________________
Раздачи долго не храню.
Profile PM

Гость


Торрент-статистика

post 23-Фев-2013 08:25 (спустя 2 дня 14 часов)

Quote


Заполучил, спасибо!
 

Гость


Торрент-статистика

post 23-Фев-2013 18:34 (спустя 10 часов)

Quote


спасибо!
 

darkmckilla


Стаж: 5 лет 1 месяц

Сообщений: 5

Россия

Торрент-статистика

post 23-Фев-2013 18:37 (спустя 2 минуты)

Quote


спасибочки, от души!
Profile PM

post 07-Июл-2014 01:15 (спустя 1 год 4 месяца)


Топик был перенесен из форума КХЛ 2012/13 в форум КХЛ до 2013 г.

fuххer666
 
Ответить на тему