КХЛ 10/11, КГ: 1/2 финала, запад / Матч №3 / Атлант - СКА / КХЛ ТВ [12.03.2011, Хоккей, SD/H.264/50fps/RU]

Ответить на тему

Автор Сообщение

LeBronJames


Стаж: 5 лет 11 месяцев

Сообщений: 43

Откуда: Saint P

Россия

Торрент-статистика

post 13-Мар-2011 02:04

Quote


КХЛ 10/11, КГ: 1/2 финала, запад / Матч №3 / Атлант - СКА / КХЛ ТВ


Год выпуска: 2011
Вид спорта: КХЛ
Участники: СКА – Атлант
Rip от: RaZoR_ru
Комментаторы: О.Мосалев, Ф.Канарейкин
Описание: Счет в серии 1:1. Кто вырвет лидерство в серии?
Доп. информация: Запись со спутникового канала
Rip от: RaZoR_ru
Качество: SATRip
Формат: MKV
Видео кодек: H.264
Аудио кодек: MP2
Видео: AVC H264 [High@L4.0], 704x568p at 50 fps, ~1800 kbps avg
Аудио: MP2, 48 kHz, 192 kbps, 2 ch
1:53:35
General
UniqueID : 209488669635964096953801003430473754267 (0x9D9A0CD9004BA17CB214F38CE485E69B)
Complete name : KHL.PlayOff.Atlant-SKA.[Game3].12.03.2011.mkv
Format : Matroska
File size : 1.62 GiB
Duration : 1h 53mn
Overall bit rate : 2 038 Kbps
Encoded date : UTC 2011-03-12 17:07:13
Writing application : mkvmerge v4.4.0 ('Die Wiederkehr') сборка от Oct 31 2010 21:52:48
Writing library : libebml v1.0.0 + libmatroska v1.0.0

Video
ID : 1
Format : AVC
Format/Info : Advanced Video Codec
Format profile : High@L4.0
Format settings, CABAC : Yes
Format settings, ReFrames : 3 frames
Codec ID : V_MPEG4/ISO/AVC
Duration : 1h 53mn
Bit rate mode : Variable
Bit rate : 1 806 Kbps
Maximum bit rate : 25.0 Mbps
Width : 704 pixels
Height : 568 pixels
Display aspect ratio : 5:4
Frame rate : 50.000 fps
Color space : YUV
Chroma subsampling : 4:2:0
Bit depth : 8 bits
Scan type : Progressive
Bits/(Pixel*Frame) : 0.090
Stream size : 1.43 GiB (89%)
Language : Russian

Audio
ID : 2
Format : MPEG Audio
Format version : Version 1
Format profile : Layer 2
Codec ID : A_MPEG/L2
Codec ID/Hint : MP2
Duration : 1h 53mn
Bit rate mode : Constant
Bit rate : 192 Kbps
Channel(s) : 2 channels
Sampling rate : 48.0 KHz
Compression mode : Lossy
Video delay : 16ms
Stream size : 156 MiB (9%)
Language : Russian
0:3
Счет в серии 2:1 - СКА лидирует


Последний раз редактировалось: LeBronJames (2011-03-13 23:33), всего редактировалось 1 раз
Profile PM

post 13-Мар-2011 09:34 (спустя 7 часов)


Топик был перенесен из форума <b><a class=\"gen\" href=\"viewforum.php?f=30\">Релизы пользователей</a></b> в форум <b><a class=\"gen\" href=\"viewforum.php?f=47\">КХЛ</a></b><br /><br /><a class=\"gen\" href=\"profile.php?mode=viewprofile&u=2943\">LeBron</a>
 
Ответить на тему