Суперсерия 2013 / 1-я игра / Лига Квебека — Россия U-20 / С1HD [19.11.2013, 1080i, H.264, RU, HDTV, SAT]

Ответить на тему

Автор Сообщение

strangersan


Стаж: 5 лет 9 месяцев

Сообщений: 3901

Откуда: Землянин

Сент-Винсент и Гренадины

Торрент-статистика

post 19-Ноя-2013 11:00

Quote



Год Выпуска: 2013
Вид Спорта: Хоккей
Продолжительность: 02:18:43
Комментарий: Алексей Пешнин
Язык Комментария: Русский (Одноголосый)
Релиз:
Качество: HDTV/SAT / Формат: TS / Видео Кодек: AVC / Аудио Кодек: MPEG
Видео: 1920x1080 (16/9), 25,000fps, 11,5 Мбит/сек / Аудио: 192 Kbps, 48 KHz, 2 channels

3:2

Полное имя : \2013.11.19_Hockey_U20_Game_1_Quebec-Russia_[rgfootball.net].ts
Формат : MPEG-TS
Размер файла : 11,9 Гбайт
Продолжительность : 2 ч. 18 м.
Режим общего битрейта : Переменный
Общий поток : 12,3 Мбит/сек

Видео
Идентификатор : 303 (0x12F)
Идентификатор меню : 1 (0x1)
Формат : AVC
Формат/Информация : Advanced Video Codec
Профиль формата : High@L4.0
Параметр CABAC формата : Да
Параметр ReFrames формата : 3 кадра
Идентификатор кодека : 27
Продолжительность : 2 ч. 18 м.
Битрейт : 11,5 Мбит/сек
Ширина : 1920 пикселей
Высота : 1080 пикселей
Соотношение сторон : 16:9
Частота кадров : 25,000 кадров/сек
Стандарт вещания : Component
Цветовое пространство : YUV
Субдискретизация насыщенности : 4:2:0
Битовая глубина : 8 бит
Тип развёртки : Чересстрочная
Порядок развёртки : Верхнее поле первое
Бит/(Пиксели*Кадры) : 0.222
Размер потока : 11,1 Гбайт (93%)
Основные цвета : BT.709
Характеристики трансфера : BT.709
Коэффициенты матрицы : BT.709

Аудио
Идентификатор : 403 (0x193)
Идентификатор меню : 1 (0x1)
Формат : MPEG Audio
Версия формата : Version 1
Профиль формата : Layer 2
Идентификатор кодека : 3
Продолжительность : 2 ч. 18 м.
Вид битрейта : Постоянный
Битрейт : 192 Кбит/сек
Каналы : 2 канала
Частота : 48,0 КГц
Метод сжатия : С потерями
Размер потока : 190 Мбайт (2%)
Язык : English

_________________
Раздачи долго не храню.
Profile PM
Ответить на тему