Кубок Английской Лиги 2014-15 / 1/16 финала / Ливерпуль - Миддлсбро / Спорт 1 [23.09.2014, 720p, H.264, RU, SAT]

Ответить на тему

Автор Сообщение

Jora879


Стаж: 6 лет

Сообщений: 350

Откуда: остров Святой Елены

О.Святой Елены

Торрент-статистика

post 24-Сен-2014 00:30

Quote


Кубок Английской Лиги 2014-15 / 1/16 финала / Ливерпуль - Миддлсбро / Спорт 1

    Год Выпуска: 2014
    Вид Спорта: Футбол
    Описание: трансляция матча началась на 10 минуте
    Стадион: Энфилд Роуд (Ливерпуль, Англия)
    Главный судья: Майк Джонс (Честер, Англия)
    Комментарий: Владимир Стогниенко
    Язык Комментария: Русский
    Релиз: Jora879
    Качество: SATRip; Формат: MPEG-4; Видео Кодек: H264; Аудио Кодек: AAC
    Видео: 1280x720 (16/9), 25 fps, 4,5 Мбит/сек; Аудио: 128 Kbps, 48 KHz, 2 channels

Составы команд на игру:
Ливерпуль: Симон Миньоле (G), Коло Туре, Мамаду Сако, Хосе Энрике, Адам Лаллана, Рахим Стерлинг, Лукас Лейва, Хави Манкильо, Джордан Росситер, Лазар Маркович, Рики Ламберт
Миддлсбро: Джамал Блэкмен (G) Даниэль Айяла, Кеннет Омеруо, Адам Рич, Джордж Френд, Адам Клэйтон, Альберт Адома, Райан Фредерикс, Грант Ледбиттер, Ли Томлин, Кике
> 14-13 (2-2) <
> 38 м. + 1 ч. 54 м. <
Общее
Полное имя : 1 тайм.mp4
Формат : MPEG-4
Профиль формата : Base Media / Version 2
Идентификатор кодека : mp42
Размер файла : 1,27 Гбайт
Продолжительность : 38 м.
Режим общего битрейта : Постоянный
Общий поток : 4761 Кбит/сек
Дата кодирования : UTC 2014-09-23 18:54:13
Дата пометки : UTC 2014-09-23 18:54:13

Видео
Идентификатор : 2
Формат : AVC
Формат/Информация : Advanced Video Codec
Профиль формата : Main@L3.1
Параметр CABAC формата : Да
Параметр ReFrames формата : 2 кадра
Параметр GOP формата : M=2, N=25
Идентификатор кодека : avc1
Идентификатор кодека/Информация : Advanced Video Coding
Продолжительность : 38 м.
Продолжительность оригинала : 38 м.
Вид битрейта : Постоянный
Битрейт : 4500 Кбит/сек
Ширина : 1280 пикселей
Высота : 720 пикселей
Соотношение сторон : 16:9
Режим частоты кадров : Переменный
Частота кадров : 25,000 кадров/сек
Минимальная частота кадров : 12,500 кадров/сек
Максимальная частота кадров : 25,000 кадров/сек
Цветовое пространство : YUV
Субдискретизация насыщенности : 4:2:0
Битовая глубина : 8 бит
Тип развёртки : Прогрессивная
Бит/(Пиксели*Кадры) : 0.195
Размер потока : 1,20 Гбайт (95%)
Размер потока оригинала : 1,20 Гбайт (95%)
Язык : English
Дата кодирования : UTC 2014-09-23 18:54:13
Дата пометки : UTC 2014-09-23 18:54:13

Аудио
Идентификатор : 1
Формат : AAC
Формат/Информация : Advanced Audio Codec
Профиль формата : LC
Идентификатор кодека : 40
Продолжительность : 38 м.
Продолжительность оригинала : 38 м.
Вид битрейта : Постоянный
Битрейт : 256 Кбит/сек
Номинальный битрейт : 128 Кбит/сек
Каналы : 2 канала
Расположение каналов : Front: L R
Частота : 48,0 КГц
Метод сжатия : С потерями
Размер потока : 69,7 Мбайт (5%)
Размер потока оригинала : 69,7 Мбайт (5%)
Язык : English
Дата кодирования : UTC 2014-09-23 18:54:13
Дата пометки : UTC 2014-09-23 18:54:13
mdhd_Duration : 2285330


Последний раз редактировалось: Jora879 (2014-09-24 10:08), всего редактировалось 3 раз(а)
Profile PM

Antoniy


Стаж: 5 лет 7 месяцев

Сообщений: 3

Откуда: Харьков

Украина

Торрент-статистика

post 24-Сен-2014 00:43 (спустя 13 минут)

Quote


Арсенал с Сотоном выложит кто-то?
Profile PM

Jora879


Стаж: 6 лет

Сообщений: 350

Откуда: остров Святой Елены

О.Святой Елены

Торрент-статистика

post 24-Сен-2014 01:39 (спустя 56 минут)

Quote


залил 2 тайм
Profile PM

R2-D2


Стаж: 4 года 11 месяцев

Сообщений: 274

Откуда: Санкт-Петербург

Россия

Торрент-статистика

post 24-Сен-2014 02:47 (спустя 1 час 7 минут)

Quote


Да, "Ливерпуль" всё-таки очень весёлая команда. Драматургии и сюжетных поворотов тут хоть отбавляй.
Стерлинг, б***, му***! 2 раза в дополнительное время привёз атаку на свои ворота. Чувак просто отдаёт пас с фланга назад, к своим воротам, чужому игроку. На, беги, забивай. С разницей минуты в 3. Если в первом случае отбились, то второй - пенальти. А потом ещё в решающий момент сам пенальти не забил. В этой игре он антимен оф зе матч.
Profile PM

Linless


Стаж: 4 года 9 месяцев

Сообщений: 10

Откуда: СПб

Россия

Торрент-статистика

post 24-Сен-2014 09:33 (спустя 6 часов)

Quote


Большое спасибо!
Согласен на счет Стерлинга
Profile PM

1hpforlive


Стаж: 2 года 11 месяцев

Сообщений: 4

Казахстан

Торрент-статистика

post 24-Сен-2014 09:34 (спустя 1 минута)

Quote


скорость будет?
Profile PM

Jora879


Стаж: 6 лет

Сообщений: 350

Откуда: остров Святой Елены

О.Святой Елены

Торрент-статистика

post 24-Сен-2014 10:07 (спустя 32 минуты)

Quote


Уснул Top User -ом, проснулся Releaser -ом. Чудеса.
Profile PM

d.s


Стаж: 5 лет 3 месяца

Сообщений: 310

Украина

Торрент-статистика

post 24-Сен-2014 10:30 (спустя 22 минуты)

Quote


Jora879
Ну так - почти сотня раздач за полтора месяця - вот Вам и Звание в награду.
Продолжайте в том же духе!!!!
Profile PM

JIuI3epIIyJIb


Стаж: 6 лет

Сообщений: 15

Казахстан

Торрент-статистика

post 24-Сен-2014 15:35 (спустя 5 часов)

Quote


R2-D2
а вот у меня есть чувство, что это было сделано намерено, никак не могу избавится

_________________
Пользователь номер 603
Profile PM

R2-D2


Стаж: 4 года 11 месяцев

Сообщений: 274

Откуда: Санкт-Петербург

Россия

Торрент-статистика

post 24-Сен-2014 18:05 (спустя 2 часа 30 минут)

Quote


JIuI3epIIyJIb писал(а):

R2-D2
а вот у меня есть чувство, что это было сделано намерено, никак не могу избавится
У меня тоже такие мысли возникали по ходу просмотра на самом деле. Но слишком уж это попахивает консперологическим бредом. ab
Profile PM
Ответить на тему