Кубок Английской Лиги 2014-15 / 1/16 финала / Суонси - Эвертон / Спорт 1 [23.09.2014, 720p, H.264, RU, SAT]

Ответить на тему

Автор Сообщение

Jora879


Стаж: 6 лет

Сообщений: 350

Откуда: остров Святой Елены

О.Святой Елены

Торрент-статистика

post 24-Сен-2014 03:20

Quote


Кубок Английской Лиги 2014-15 / 1/16 финала / Суонси - Эвертон / Спорт 1

    Год Выпуска: 2014
    Вид Спорта: Футбол
    Описание:
    Стадион: Либерти (Суонси, Уэльс)
    Главный судья: Роджер Ист (Уилтшир, Англия)
    Комментарий: Александр Ткачев
    Язык Комментария: Русский
    Релиз: Jora879
    Качество: SATRip; Формат: MPEG-4; Видео Кодек: H264; Аудио Кодек: AAC
    Видео: 1280x720 (16/9), 25 fps, 4,5 Мбит/сек; Аудио: 128 Kbps, 48 KHz, 2 channels

Суонси:
25. Герхард Треммель (G)
03. Нил Тейлор
06. Эшли Уильямс
33. Федерико Фернандес
08. Джонджо Шелви
20. Джефферсон Монтеро
23. Гильфи Сигурдссон
29. Джаз Ричардс
14. Том Кэррол
12. Натан Дайер
18. Бафетимби Гомис

Эвертон:
24. Тим Ховард (G)
29. Люк Гарбутт
15. Сильвен Дистен
17. Мухамед Бешич
02. Тони Хибберт
30. Антолин Алькараз
07. Эйден МакГиди
04. Дэррон Гибсон
08. Брайан Овьедо
19. Кристиан Атсу
05. Самюэль Этоо
> 3-0 <
> 46 м. + 49 м. <
Общее
Полное имя :1 тайм.mp4
Формат : MPEG-4
Профиль формата : Base Media / Version 2
Идентификатор кодека : mp42
Размер файла : 1,54 Гбайт
Продолжительность : 46 м.
Режим общего битрейта : Постоянный
Общий поток : 4760 Кбит/сек
Дата кодирования : UTC 2014-09-23 21:45:27
Дата пометки : UTC 2014-09-23 21:45:27

Видео
Идентификатор : 2
Формат : AVC
Формат/Информация : Advanced Video Codec
Профиль формата : Main@L3.1
Параметр CABAC формата : Да
Параметр ReFrames формата : 2 кадра
Параметр GOP формата : M=2, N=25
Идентификатор кодека : avc1
Идентификатор кодека/Информация : Advanced Video Coding
Продолжительность : 46 м.
Продолжительность оригинала : 46 м.
Вид битрейта : Постоянный
Битрейт : 4500 Кбит/сек
Ширина : 1280 пикселей
Высота : 720 пикселей
Соотношение сторон : 16:9
Режим частоты кадров : Переменный
Частота кадров : 25,000 кадров/сек
Минимальная частота кадров : 12,500 кадров/сек
Максимальная частота кадров : 25,000 кадров/сек
Цветовое пространство : YUV
Субдискретизация насыщенности : 4:2:0
Битовая глубина : 8 бит
Тип развёртки : Прогрессивная
Бит/(Пиксели*Кадры) : 0.195
Размер потока : 1,46 Гбайт (95%)
Размер потока оригинала : 1,46 Гбайт (95%)
Язык : English
Дата кодирования : UTC 2014-09-23 21:45:27
Дата пометки : UTC 2014-09-23 21:45:27

Аудио
Идентификатор : 1
Формат : AAC
Формат/Информация : Advanced Audio Codec
Профиль формата : LC
Идентификатор кодека : 40
Продолжительность : 46 м.
Продолжительность оригинала : 46 м.
Вид битрейта : Постоянный
Битрейт : 256 Кбит/сек
Номинальный битрейт : 128 Кбит/сек
Каналы : 2 канала
Расположение каналов : Front: L R
Частота : 48,0 КГц
Метод сжатия : С потерями
Размер потока : 85,1 Мбайт (5%)
Размер потока оригинала : 85,1 Мбайт (5%)
Язык : English
Дата кодирования : UTC 2014-09-23 21:45:27
Дата пометки : UTC 2014-09-23 21:45:27
mdhd_Duration : 2787772
Profile PM

Jora879


Стаж: 6 лет

Сообщений: 350

Откуда: остров Святой Елены

О.Святой Елены

Торрент-статистика

post 24-Сен-2014 08:22 (спустя 5 часов)

Quote


bm
Profile PM

Kc_Wolf


Стаж: 5 лет 8 месяцев

Сообщений: 9

Торрент-статистика

post 24-Сен-2014 15:41 (спустя 7 часов)

Quote


А арсенал-сотон будет?
Profile PM

v1ta1ch1k


Стаж: 6 лет

Сообщений: 18

Австралия

Торрент-статистика

post 24-Сен-2014 20:05 (спустя 4 часа)

Quote


...
Profile PM
Ответить на тему