Кубок Английской Лиги 2015-16 / 1-й раунд / Донкастер - Лидс Юнайтед / Digi Sport 2 HD [13.08.2015,1080i, H.264, MPEG, HUN, HDTV, SAT]

Ответить на тему

Автор Сообщение

K. Valera


Стаж: 4 года 7 месяцев

Сообщений: 781

Украина

Торрент-статистика

post 14-Авг-2015 12:08

Quote


Кубок Английской Лиги 2015-16 / Capital One Cup / Донкастер - Лидс Юнайтед / Digi Sport 2 HD

Год выпуска: 13.08.2015
Вид спорта: Футбол
Релиз:
Aвтор рипа: K. Valera
Продолжительность: *
Комментарий: Профессиональный
Язык комментариев: Венгерский
Канал:
Качество: HDTV / Формат: *.ts / Видео Кодек: AVC / Аудио Кодек: MPEG
Видео: 1920x1080 (16/9), 25,000 fps, 9.3 Мбит/сек
Аудио 1: 128 Kbps, 48 KHz, MPEG mp2 2.0 channels
Запись видео: Openbox SX6 HD
Программа корректировки видео: Cypheros TS-Doctor ver. 1.2.22

Первых 50 сек отсутствует.
14.08.2015 торент перезалит, добавлен недостающий файл.
<< 00:47:31 + 00:50:47 + 00:46:31 >>

Код:

General
ID                             : 13 (0xD)
Complete name                  : D:\111\Кубок Английской Лиги 2015-16 Донкастер - Лидс Юнайтед Digi Sport 2 HD\01. Донкастер - Лидс Юнайтед.ts
Format                         : MPEG-TS
File size                      : 3.11 GiB
Duration                       : 47mn 30s
Overall bit rate mode          : Variable
Overall bit rate               : 9 387 Kbps

Video
ID                             : 4081 (0xFF1)
Menu ID                        : 4060 (0xFDC)
Format                         : AVC
Format/Info                    : Advanced Video Codec
Format version                 : Version 2
Format profile                 : Main@L4
Format settings, CABAC         : Yes
Format settings, ReFrames      : 4 frames
Format settings, GOP           : M=4, N=32
Codec ID                       : 27
Duration                       : 47mn 30s
Bit rate                       : 8 794 Kbps
Maximum bit rate               : 44.0 Kbps
Width                          : 1 920 pixels
Height                         : 1 080 pixels
Display aspect ratio           : 16:9
Frame rate                     : 25.000 fps
Color space                    : YUV
Chroma subsampling             : 4:2:0
Bit depth                      : 8 bits
Scan type                      : Interlaced
Scan order                     : Top Field First
Bits/(Pixel*Frame)             : 0.170
Stream size                    : 2.92 GiB (94%)
Color range                    : Limited
Color primaries                : BT.709
Transfer characteristics       : BT.709
Matrix coefficients            : BT.709

Audio
ID                             : 4105 (0x1009)
Menu ID                        : 4060 (0xFDC)
Format                         : MPEG Audio
Format version                 : Version 1
Format profile                 : Layer 2
Codec ID                       : 4
Duration                       : 47mn 30s
Bit rate mode                  : Constant
Bit rate                       : 128 Kbps
Maximum bit rate               : 132 Kbps
Channel(s)                     : 2 channels
Sampling rate                  : 48.0 KHz
Compression mode               : Lossy
Delay relative to video        : -391ms
Stream size                    : 43.5 MiB (1%)
Language                       : Hungarian

Menu
ID                             : 4160 (0x1040)
Menu ID                        : 4060 (0xFDC)
Duration                       : 47mn 30s
List                           : 4081 (0xFF1) (AVC) / 4105 (0x1009) (MPEG Audio, Hungarian)
Language                       :  / Hungarian
Maximum bit rate               : 12162800
Донкастер: Т.Стакмэнн, С.Эвина, Л.МакКулог, Р.Джонс, Э.Батлер, А.Синклейр, Г.Форрестер, Р.Уэлленс, Д.Коппингер, Х.Миддлтон, Э.Уильямс
Лидс Юнайтед: Р.Тернбулл, Д.Беллуски, Л.Купер, Ч.Тейлор, Г.Берарди, С.Вуттон, А.Мовотт, Л.Кук, С.Даллас, М.Антенуччи, С.Дукара

_________________
webmoney: R102437980674, U865336828210, Bitcoin: 1C5RGE4438bq3VfVUEfcw63rmYrb6Sgr29. Файлы не конвертирую. Готов реанимировать почти все свои раздачи.


Последний раз редактировалось: K. Valera (2015-08-14 20:23), всего редактировалось 2 раз(а)
Profile PM

Pepperoni


Стаж: 6 лет

Сообщений: 3325

Откуда: Milan

Италия

Торрент-статистика

post 14-Авг-2015 12:12 (спустя 4 минуты)

Quote


А почему нет конца матча?

_________________
Profile PM

post 14-Авг-2015 12:17 (спустя 4 минуты)


Топик был перенесен из форума Национальные кубки до 2015 в форум Национальные кубки 2015/16

Pepperoni
 

K. Valera


Стаж: 4 года 7 месяцев

Сообщений: 781

Украина

Торрент-статистика

post 14-Авг-2015 20:02 (спустя 7 часов)

Quote


Полный матч, перекачайте торрент файл.

_________________
webmoney: R102437980674, U865336828210, Bitcoin: 1C5RGE4438bq3VfVUEfcw63rmYrb6Sgr29. Файлы не конвертирую. Готов реанимировать почти все свои раздачи.
Profile PM

rubenz


Стаж: 4 года 2 месяца

Сообщений: 46

Откуда: Тюмень

Россия

Торрент-статистика

post 16-Авг-2015 18:02 (спустя 1 день 22 часа)

Quote


Большое Спасибо за Лидс!!!
Profile PM

K. Valera


Стаж: 4 года 7 месяцев

Сообщений: 781

Украина

Торрент-статистика

post 29-Авг-2015 17:11 (спустя 12 дней)

Quote


Дерби - Лидс удалось записать. Сейчас попробую Ипсвич - Брайтон и может Блэкберн -Болтон.

P.S. Попутал Чемпионат с Кубком.

_________________
webmoney: R102437980674, U865336828210, Bitcoin: 1C5RGE4438bq3VfVUEfcw63rmYrb6Sgr29. Файлы не конвертирую. Готов реанимировать почти все свои раздачи.
Profile PM

антоновгена


Стаж: 3 года 4 месяца

Сообщений: 232

Россия

Торрент-статистика

post 23-Сен-2015 12:27 (спустя 24 дня)

Quote


ребят а у кого есть вчерашний матч Сандерленд-Ман.сити поделитесь пожалуйста.
Profile PM

plastilin


Стаж: 3 года 3 месяца

Сообщений: 30

Откуда: Петрозаводск

Россия

Торрент-статистика

post 23-Сен-2015 18:56 (спустя 6 часов)

Quote


Товарищи, залейте пожалуйста дерби Второго города (бирмингемское) "Астон Вилла" - "Бирмингем Сити". очень ждал этого матча. Кубок Лиги.

_________________
Истина где-то там...
Profile PM

антоновгена


Стаж: 3 года 4 месяца

Сообщений: 232

Россия

Торрент-статистика

post 23-Сен-2015 20:36 (спустя 1 час 39 минут)

Quote


антоновгена писал(а):

ребят а у кого есть вчерашний матч Сандерленд-Ман.сити поделитесь пожалуйста.
А подскажите пожалуйста,будут ли сегодняшнее матчи кубка английской лиги (Уолсолл-Челси)(Ман.юн-Ипсвич)заранее спасибо.
Profile PM

kellermun


Стаж: 5 лет 10 месяцев

Сообщений: 73

Откуда: ukraine

Украина

Торрент-статистика

post 24-Сен-2015 00:47 (спустя 4 часа)

Quote


Да, скажите, пожалуйста, будет ли МЮ-Ипсвич??? Очень ждал среды....
Profile PM

Tujh95_MU


Стаж: 6 лет

Сообщений: 495

Откуда: Омск

Россия

Торрент-статистика

post 24-Сен-2015 13:15 (спустя 12 часов)

Quote


Да, действительно, ждать Манчестер Юнайтед - Ипсвич в хорошем качестве?

_________________
Profile PM

sXeRostik


Стаж: 2 года

Сообщений: 15

Швеция

Торрент-статистика

post 24-Сен-2015 16:35 (спустя 3 часа)

Quote


МЮ - Ипсвич +1)
Profile PM

K. Valera


Стаж: 4 года 7 месяцев

Сообщений: 781

Украина

Торрент-статистика

post 24-Сен-2015 21:16 (спустя 4 часа)

Quote


Sunderland (D1) / Manchester City (D1) можно сделать.

Tottenham (D1) / Arsenal (D1) тоже вижу.

_________________
webmoney: R102437980674, U865336828210, Bitcoin: 1C5RGE4438bq3VfVUEfcw63rmYrb6Sgr29. Файлы не конвертирую. Готов реанимировать почти все свои раздачи.
Profile PM
Ответить на тему