Кубок Английской Лиги 2015-16 / 2-й раунд / Барнсли – Эвертон / Digi Sport 1 HD [26.08.2015,1080i, H.264, MPEG, HUN, HDTV, SAT]

Ответить на тему

Автор Сообщение

K. Valera


Стаж: 4 года 7 месяцев

Сообщений: 781

Украина

Торрент-статистика

post 27-Авг-2015 09:58

Quote


Кубок Английской Лиги 2015-16 / Capital One Cup / Барнсли – Эвертон / Digi Sport 1 HD

Год выпуска: 26.08.2015
Вид спорта: Футбол
Релиз:
Aвтор рипа: K. Valera
Продолжительность: *
Комментарий: Профессиональный
Язык комментариев: Венгерский
Канал:
Качество: HDTV / Формат: *.ts / Видео Кодек: AVC / Аудио Кодек: MPEG
Видео: 1920x1080 (16/9), 25,000 fps, 9.7 Мбит/сек
Аудио: 128 Kbps, 48 KHz, MPEG mp2 2.0 channels
Запись видео: Openbox SX6 HD
Программа корректировки видео: Cypheros TS-Doctor ver. 1.2.22
<< 00:52:40 + 00:51:45 + 00:35:41 >>

Код:

General
ID                             : 13 (0xD)
Complete name                  : D:\111\Кубок Английской Лиги 2015-16 Барнсли – Эвертон Digi Sport 1 HD\01. Barnsley v Everton.ts
Format                         : MPEG-TS
File size                      : 3.56 GiB
Duration                       : 52mn 39s
Overall bit rate mode          : Variable
Overall bit rate               : 9 690 Kbps

Video
ID                             : 4076 (0xFEC)
Menu ID                        : 4020 (0xFB4)
Format                         : AVC
Format/Info                    : Advanced Video Codec
Format version                 : Version 2
Format profile                 : Main@L4
Format settings, CABAC         : Yes
Format settings, ReFrames      : 4 frames
Format settings, GOP           : M=3, N=12
Codec ID                       : 27
Duration                       : 52mn 39s
Bit rate                       : 9 082 Kbps
Maximum bit rate               : 44.0 Kbps
Width                          : 1 920 pixels
Height                         : 1 080 pixels
Display aspect ratio           : 16:9
Frame rate                     : 25.000 fps
Color space                    : YUV
Chroma subsampling             : 4:2:0
Bit depth                      : 8 bits
Scan type                      : Interlaced
Scan order                     : Top Field First
Bits/(Pixel*Frame)             : 0.175
Stream size                    : 3.34 GiB (94%)
Color range                    : Limited
Color primaries                : BT.709
Transfer characteristics       : BT.709
Matrix coefficients            : BT.709

Audio
ID                             : 4100 (0x1004)
Menu ID                        : 4020 (0xFB4)
Format                         : MPEG Audio
Format version                 : Version 1
Format profile                 : Layer 2
Codec ID                       : 4
Duration                       : 52mn 39s
Bit rate mode                  : Constant
Bit rate                       : 128 Kbps
Maximum bit rate               : 132 Kbps
Channel(s)                     : 2 channels
Sampling rate                  : 48.0 KHz
Compression mode               : Lossy
Delay relative to video        : -450ms
Stream size                    : 48.2 MiB (1%)
Language                       : Hungarian

Menu
ID                             : 4120 (0x1018)
Menu ID                        : 4020 (0xFB4)
Duration                       : 52mn 39s
List                           : 4076 (0xFEC) (AVC) / 4100 (0x1004) (MPEG Audio, Hungarian)
Language                       :  / Hungarian
Maximum bit rate               : 12162800

_________________
webmoney: R102437980674, U865336828210, Bitcoin: 1C5RGE4438bq3VfVUEfcw63rmYrb6Sgr29. Файлы не конвертирую. Готов реанимировать почти все свои раздачи.
Profile PM
Ответить на тему