Кубок Английской Лиги 2015-16 / Capital One Cup / 3-й раунд / Сандерленд - Манчестер Сити / beIN SPORTS 2 HD [22.09.2015,1080i, H.264, MPEG, FR, HDTV, SAT]

Ответить на тему

Автор Сообщение

K. Valera


Стаж: 4 года 7 месяцев

Сообщений: 781

Украина

Торрент-статистика

post 25-Сен-2015 11:53

Quote


Кубок Английской Лиги 2015-16 / Capital One Cup / 3-й раунд / Сандерленд - Манчестер Сити / beIN SPORTS 2 HD

Год выпуска: 22.09.2015
Вид спорта: Футбол
Релиз:
Aвтор рипа: K. Valera
Продолжительность: *
Комментарий: Профессиональный
Язык комментариев: Французский
Канал:
Качество: HDTV / Формат: *.ts / Видео Кодек: AVC / Аудио Кодек: MPEG
Видео: 1920x1080 (16/9), 25,000 fps, 8.7 Мбит/сек
Аудио: 192 Kbps, 48 KHz, MPEG mp2 2.0 channels (Французский)
Запись видео: Openbox SX6 HD
Программа корректировки видео: Cypheros TS-Doctor ver. 1.2.22

Код:

General
ID                             : 1012 (0x3F4)
Complete name                  : F:\Кубок Английской Лиги 2015-16 3-й раунд Сандерленд - Манчестер Сити beIN SPORTS 2 HD\01. Сандерленд - Манчестер Сити beIN SPORTS 2 HD.ts
Format                         : MPEG-TS
File size                      : 3.11 GiB
Duration                       : 47mn 45s
Overall bit rate mode          : Variable
Overall bit rate               : 9 320 Kbps

Video
ID                             : 621 (0x26D)
Menu ID                        : 6302 (0x189E)
Format                         : AVC
Format/Info                    : Advanced Video Codec
Format profile                 : High@L4.0
Format settings, CABAC         : Yes
Format settings, ReFrames      : 3 frames
Format settings, GOP           : M=4, N=24
Codec ID                       : 27
Duration                       : 47mn 45s
Bit rate                       : 8 665 Kbps
Width                          : 1 920 pixels
Height                         : 1 080 pixels
Display aspect ratio           : 16:9
Frame rate                     : 25.000 fps
Standard                       : Component
Color space                    : YUV
Chroma subsampling             : 4:2:0
Bit depth                      : 8 bits
Scan type                      : Interlaced
Scan order                     : Top Field First
Bits/(Pixel*Frame)             : 0.167
Stream size                    : 2.89 GiB (93%)
Encryption                     : Seca Mediaguard 1/2
Color primaries                : BT.709
Transfer characteristics       : BT.709
Matrix coefficients            : BT.709
Color range                    : Limited

Audio
ID                             : 622 (0x26E)
Menu ID                        : 6302 (0x189E)
Format                         : MPEG Audio
Format version                 : Version 1
Format profile                 : Layer 2
Codec ID                       : 4
Duration                       : 47mn 45s
Bit rate mode                  : Constant
Bit rate                       : 192 Kbps
Channel(s)                     : 2 channels
Sampling rate                  : 48.0 KHz
Compression mode               : Lossy
Delay relative to video        : 110ms
Stream size                    : 65.6 MiB (2%)
Language                       : French
Encryption                     : Seca Mediaguard 1/2
<< 00:47:46 + 00:49:27 >>
Сандерленд: В.Манноне, Д.О Ши, С.Коатес, П.ван Анхольт, Д.Йедлин, А.Джонсон, Д.Родуэлл, Я.Мвила, Ф.Борини, О.Тойвонен, Д.Ленс
Манчестер Сити: В.Кабальеро, Н.Отаменди, Б.Санья, М.Демичелис, А.Коларов, К.де Брюйн, Р.Стерлинг, Я.Туре, Х.Навас, Фернандо, С.Агуэро
1:4

_________________
webmoney: R102437980674, U865336828210, Bitcoin: 1C5RGE4438bq3VfVUEfcw63rmYrb6Sgr29. Файлы не конвертирую. Готов реанимировать почти все свои раздачи.
Profile PM

антоновгена


Стаж: 3 года 4 месяца

Сообщений: 232

Россия

Торрент-статистика

post 28-Окт-2015 14:02 (спустя 1 месяц 3 дня)

Quote


Добрый день,у кого есть вчерашний матч Сток-Челси,поделитесь пожалуйста.
Profile PM

K. Valera


Стаж: 4 года 7 месяцев

Сообщений: 781

Украина

Торрент-статистика

post 28-Окт-2015 22:43 (спустя 8 часов)

Quote


Попадётся, запишу.

_________________
webmoney: R102437980674, U865336828210, Bitcoin: 1C5RGE4438bq3VfVUEfcw63rmYrb6Sgr29. Файлы не конвертирую. Готов реанимировать почти все свои раздачи.
Profile PM
Ответить на тему