Кубок Английской Лиги 2015-16 / Capital One Cup / 4-й раунд / Манчестер Сити - Кристал Пэлас / beIN SPORTS 1 HD [28.10.2015,1080i, H.264, MPEG, FR, HDTV, SAT]

Ответить на тему

Автор Сообщение

K. Valera


Стаж: 4 года 7 месяцев

Сообщений: 781

Украина

Торрент-статистика

post 30-Окт-2015 22:43

Quote


Кубок Английской Лиги 2015-16 / Capital One Cup / 4-й раунд / Манчестер Сити - Кристал Пэлас / beIN SPORTS 1 HD

Год выпуска: 28.10.2015
Вид спорта: Футбол
Релиз:
Aвтор рипа: K. Valera
Продолжительность: *
Комментарий: Профессиональный
Язык комментариев: Французский
Канал:
Качество: HDTV / Формат: *.ts / Видео Кодек: AVC / Аудио Кодек: MPEG
Видео: 1920x1080 (16/9), 25,000 fps, 8 497 Kbps
Аудио: 192 Kbps, 48 KHz, MPEG mp2 2.0 channels (Французский)
Запись видео: Openbox SX6 HD
Программа корректировки видео: Cypheros TS-Doctor ver. 1.2.22

<< 00:50:38 + 00:50:33 >>

Код:

General
ID                             : 1012 (0x3F4)
Complete name                  : D:\111\Кубок Английской Лиги 2015-16 4-й раунд Манчестер Сити - Кристал Пэлас beIN SPORTS 1 HD\01. Manchester City - Crystal Palace beIN SPORTS 1 HD.ts
Format                         : MPEG-TS
File size                      : 3.23 GiB
Duration                       : 50mn 38s
Overall bit rate mode          : Variable
Overall bit rate               : 9 143 Kbps

Video
ID                             : 611 (0x263)
Menu ID                        : 6301 (0x189D)
Format                         : AVC
Format/Info                    : Advanced Video Codec
Format profile                 : High@L4
Format settings, CABAC         : Yes
Format settings, ReFrames      : 3 frames
Format settings, GOP           : M=4, N=24
Codec ID                       : 27
Duration                       : 50mn 38s
Bit rate                       : 8 497 Kbps
Width                          : 1 920 pixels
Height                         : 1 080 pixels
Display aspect ratio           : 16:9
Frame rate                     : 25.000 fps
Standard                       : Component
Color space                    : YUV
Chroma subsampling             : 4:2:0
Bit depth                      : 8 bits
Scan type                      : Interlaced
Scan order                     : Top Field First
Bits/(Pixel*Frame)             : 0.164
Stream size                    : 3.01 GiB (93%)
Encryption                     : Seca Mediaguard 1/2
Color range                    : Limited
Color primaries                : BT.709
Transfer characteristics       : BT.709
Matrix coefficients            : BT.709

Audio
ID                             : 612 (0x264)
Menu ID                        : 6301 (0x189D)
Format                         : MPEG Audio
Format version                 : Version 1
Format profile                 : Layer 2
Codec ID                       : 4
Duration                       : 50mn 38s
Bit rate mode                  : Constant
Bit rate                       : 192 Kbps
Channel(s)                     : 2 channels
Sampling rate                  : 48.0 KHz
Compression mode               : Lossy
Delay relative to video        : 135ms
Stream size                    : 69.5 MiB (2%)
Language                       : French
Encryption                     : Seca Mediaguard 1/2
Манчестер Сити: В.Кабальеро, А.Коларов, Э.Мангала, М.Демичелис, П.Сабалета, К.де Брюйн, Я.Туре, Х.Навас, Фернандо, В.Бони, К.Ихеаначо
Кристал Пэлас: У.Хенесси, А.Мариаппа, Д.Дилейни, С.Данн, М.Келли, Д.Матч, Д.Ледли, Я.Боласи, У.Заха, М.Единак, П.Бэмфорд

_________________
webmoney: R102437980674, U865336828210, Bitcoin: 1C5RGE4438bq3VfVUEfcw63rmYrb6Sgr29. Файлы не конвертирую. Готов реанимировать почти все свои раздачи.
Profile PM

K. Valera


Стаж: 4 года 7 месяцев

Сообщений: 781

Украина

Торрент-статистика

post 30-Окт-2015 22:50 (спустя 6 минут)

Quote


Вместо Stoke - Chelsea показали Рома – Удинезе, так что пока это всё.

av Хотя можно ещё Rotherham United - Sheffield Wednesday. Ночью будет повтор. bh

_________________
webmoney: R102437980674, U865336828210, Bitcoin: 1C5RGE4438bq3VfVUEfcw63rmYrb6Sgr29. Файлы не конвертирую. Готов реанимировать почти все свои раздачи.
Profile PM

T3RMIT


Стаж: 5 лет 3 месяца

Сообщений: 36

Откуда: 2LA

Россия

Торрент-статистика

post 31-Окт-2015 12:12 (спустя 13 часов)

Quote


Огромное спасибо!!!
Profile PM
Ответить на тему