Кубок Английской Лиги 2015-16 / 1/4 финала / Саутгемптон - Ливерпуль / LFC TV [02.12.2015., HD, 720p, H264, EN, SAT]

Ответить на тему

Автор Сообщение

Chameleon


Стаж: 6 лет

Сообщений: 3696

Откуда: Tyumen

Россия

Торрент-статистика

post 03-Дек-2015 20:07

Quote




Страна: Англия.
Турнир: Кубок Английской Лиги 2015-16. 1/4 финала.
Участники матча: Саутгемптон - Ливерпуль
Дата матча: 02.12.2015
Место проведения: St Mary's Stadium
Телеканал: LFC TV
Язык комментариев: English
Продолжительность: ***
Формат видео: MP4
Видео кодек, разрешение, ...: H264, 1280x720, 3000 kbps, 25 fps
Аудио кодек, ...: AAC, 128 kbps, 2 ch, 44.1 kHz
Format : MPEG-4
Format profile : Base Media
Codec ID : isom
File size : 1.86 GiB
Duration : 1h 41mn
Overall bit rate : 2 634 Kbps
Encoded date : UTC 2015-12-02 23:57:13
Tagged date : UTC 2015-12-02 23:57:13
Writing application : Lavf53.31.100

Video
ID : 1
Format : AVC
Format/Info : Advanced Video Codec
Format profile : High@L4
Format settings, CABAC : Yes
Format settings, ReFrames : 6 frames
Codec ID : avc1
Codec ID/Info : Advanced Video Coding
Duration : 1h 41mn
Bit rate : 2 500 Kbps
Width : 1 280 pixels
Height : 720 pixels
Display aspect ratio : 16:9
Frame rate mode : Constant
Frame rate : 25.000 fps
Color space : YUV
Chroma subsampling : 4:2:0
Bit depth : 8 bits
Scan type : Progressive
Bits/(Pixel*Frame) : 0.109
Stream size : 1.77 GiB (95%)
Writing library : x264 core 120 r2164 da19765
Encoding settings : cabac=1 / ref=6 / deblock=1:0:0 / analyse=0x3:0x111 / me=hex / subme=7 / psy=0 / mixed_ref=1 / me_range=16 / chroma_me=1 / trellis=1 / 8x8dct=1 / cqm=0 / deadzone=21,11 / fast_pskip=1 / chroma_qp_offset=0 / threads=4 / sliced_threads=0 / nr=0 / decimate=1 / interlaced=0 / bluray_compat=0 / constrained_intra=0 / bframes=16 / b_pyramid=2 / b_adapt=1 / b_bias=0 / direct=1 / weightb=1 / open_gop=0 / weightp=2 / keyint=50 / keyint_min=20 / scenecut=40 / intra_refresh=0 / rc_lookahead=40 / rc=cbr / mbtree=0 / bitrate=2500 / ratetol=1.0 / qcomp=0.60 / qpmin=10 / qpmax=50 / qpstep=4 / vbv_maxrate=2500 / vbv_bufsize=5000 / nal_hrd=none / ip_ratio=1.40 / pb_ratio=1.30 / aq=1:1.00
Language : English
Encoded date : UTC 2015-12-02 23:57:13
Tagged date : UTC 2015-12-02 23:57:13

Audio
ID : 2
Format : AAC
Format/Info : Advanced Audio Codec
Format profile : LC
Codec ID : 40
Duration : 1h 41mn
Bit rate mode : Constant
Bit rate : 128 Kbps
Channel(s) : 2 channels
Channel positions : Front: L R
Sampling rate : 44.1 KHz
Compression mode : Lossy
Stream size : 92.5 MiB (5%)
Language : English
Encoded date : UTC 2015-12-02 23:57:13
Tagged date : UTC 2015-12-02 23:57:13

01:41:05
1 - 6

Скриншоты:

_________________
Насчет матчей чемпионата Аргентины, Бразилии, Южной Кореи и других лиг пишите в ЛС.


Последний раз редактировалось: Chameleon (2015-12-06 23:03), всего редактировалось 1 раз
Profile PM

АртёмТЧ-14


Стаж: 3 года 3 месяца

Сообщений: 24

Откуда: Кузбасс

Россия

Торрент-статистика

post 04-Дек-2015 10:35 (спустя 14 часов)

Quote


Плохо что 1080 нет. Ливерпуль по популярнее Сити будет.

_________________
Ливерпуль чемпион!!!
Profile PM

eugen73


Стаж: 3 года 8 месяцев

Сообщений: 12

Откуда: Воронеж

Россия

Торрент-статистика

post 04-Дек-2015 10:58 (спустя 22 минуты)

Quote


Вообще то 1-6 (меня чуть кондратий не хватил)))
Profile PM

unibett


Стаж: 6 лет

Сообщений: 112

Мексика

Торрент-статистика

post 05-Дек-2015 23:25 (спустя 1 день 12 часов)

Quote


После просмотра понял, почему этот матч есть и от канала Ливерпуля в сети))))
Profile PM
Ответить на тему