Кубок Англии 1987-1988/ FA Cup/ 4-й раунд/ Астон Вилла-Ливерпуль/ [31.01.1988, Футбол, SATRip, EN]

Ответить на тему

Интересуют ли вас раритетные матчи чемпионата Англии?

Да   90%  90%  [ 10 ]
Нет   9%  9%  [ 1 ]

Всего проголосовало : 11

Автор Сообщение

vetalaka


Стаж: 5 лет 1 месяц

Сообщений: 34

Откуда: Днепропетровск

Украина

Торрент-статистика

post 30-Янв-2016 16:56

Quote


Кубок Англии 1987-1988
4-й раунд
Астон Вилла-Ливерпуль

Вид спорта: Футбол
Комментарий: Профессиональный (одноголосый)
Язык комментариев: Английский
Описание: 31.01.1988, стадион Вилла Парк (Англия, Бирмингем)
Кубковый матч между лидерами второго и первого дивизионов. Смогут ли Бирмингемцы остановить непобедимый Ливерпуль, серия которого насчитывает 29 матчей без поражений?

Качество: SATRip
Формат: MPEG-4
Видео кодек: AVC
Аудио кодек: AC-3
Видео: 632x480 (4:3); 25 fps; 1025 Кбит/сек
Аудио: 126 Кбит/сек; 44,1 КГц; 2 канала

Дополнительная информация: Огромная благодарность Дейву из Мерсисайда за предоставленный раритет!!! На видео присутствую небольшие превью, комментарии журналистов и послематчевые интервью легенд английского футбола Джона Барнса и Грэма Тейлора . Рекламу вырезать не стал, она прикольная ag
01:57:47
0-2
Общее
ормат : MPEG-4
Профиль формата : Base Media
Идентификатор кодека : isom
Размер файла : 975 Мбайт
Продолжительность : 1 ч. 57 м.
Общий поток : 1157 Кбит/сек
Программа кодирования : Lavf57.2.100

Видео
Идентификатор : 1
Формат : AVC
Формат/Информация : Advanced Video Codec
Профиль формата : Main@L3.0
Параметр CABAC формата : Да
Параметр ReFrames формата : 3 кадра
Идентификатор кодека : avc1
Идентификатор кодека/Информация : Advanced Video Coding
Продолжительность : 1 ч. 57 м.
Битрейт : 1025 Кбит/сек
Ширина : 632 пикселя
Высота : 480 пикселей
Соотношение сторон : 4:3
Режим частоты кадров : Постоянный
Частота кадров : 25,000 кадров/сек
Цветовое пространство : YUV
Субдискретизация насыщенности : 4:2:0
Битовая глубина : 8 бит
Тип развёртки : Прогрессивная
Бит/(Пиксели*Кадры) : 0.135
Размер потока : 864 Мбайт (89%)

Аудио
Идентификатор : 2
Формат : AAC
Формат/Информация : Advanced Audio Codec
Профиль формата : LC
Идентификатор кодека : 40
Продолжительность : 1 ч. 57 м.
Вид битрейта : Постоянный
Битрейт : 126 Кбит/сек
Каналы : 2 канала
Расположение каналов : Front: L R
Частота : 44,1 КГц
Метод сжатия : С потерями
Задержка видео : 40 мс.
Размер потока : 106 Мбайт (11%)
Profile PM
Ответить на тему