Кубок Англии 2013-2014 / 1-й раунд / Шортвуд Юнайтед — Порт Вэйл / С1HD [11.11.2013, 1080i, H.264, RU, HDTV, SAT]

Ответить на тему

Автор Сообщение

strangersan


Стаж: 5 лет 9 месяцев

Сообщений: 3904

Откуда: Землянин

Сент-Винсент и Гренадины

Торрент-статистика

post 12-Ноя-2013 11:00

Quote



Год Выпуска: 2013
Вид Спорта: Футбол
Продолжительность: 01:41:27
Комментарий: Александр Гришин
Язык Комментария: Русский (Одноголосый)
Релиз:
Качество: HDTV/SAT / Формат: TS / Видео Кодек: AVC / Аудио Кодек: MPEG
Видео: 1920x1080 (16/9), 25,000fps, 11,3 Мбит/сек / Аудио: 192 Kbps, 48 KHz, 2 channels

0:4

Полное имя : \2013.11.11_1round_FA_Cup_Shortwood_United-Port_Vale_[rgfootball.net].ts
Формат : MPEG-TS
Размер файла : 8,60 Гбайт
Продолжительность : 1 ч. 41 м.
Режим общего битрейта : Переменный
Общий поток : 12,1 Мбит/сек

Видео
Идентификатор : 303 (0x12F)
Идентификатор меню : 1 (0x1)
Формат : AVC
Формат/Информация : Advanced Video Codec
Профиль формата : High@L4.0
Параметр CABAC формата : Да
Параметр ReFrames формата : 3 кадра
Идентификатор кодека : 27
Продолжительность : 1 ч. 41 м.
Битрейт : 11,3 Мбит/сек
Ширина : 1920 пикселей
Высота : 1080 пикселей
Соотношение сторон : 16:9
Частота кадров : 25,000 кадров/сек
Стандарт вещания : Component
Цветовое пространство : YUV
Субдискретизация насыщенности : 4:2:0
Битовая глубина : 8 бит
Тип развёртки : Чересстрочная
Порядок развёртки : Верхнее поле первое
Бит/(Пиксели*Кадры) : 0.219
Размер потока : 8,04 Гбайт (93%)
Основные цвета : BT.709
Характеристики трансфера : BT.709
Коэффициенты матрицы : BT.709

Аудио
Идентификатор : 403 (0x193)
Идентификатор меню : 1 (0x1)
Формат : MPEG Audio
Версия формата : Version 1
Профиль формата : Layer 2
Идентификатор кодека : 3
Продолжительность : 1 ч. 41 м.
Вид битрейта : Постоянный
Битрейт : 192 Кбит/сек
Каналы : 2 канала
Частота : 48,0 КГц
Метод сжатия : С потерями
Размер потока : 139 Мбайт (2%)
Язык : English

_________________
Раздачи долго не храню.
Profile PM
Ответить на тему