Чемпионат Англии 2016-17 / 1 тур / Халл Сити – Лестер Сити / Sky Sports 1 HD [13.08.2016, 720p, 50fps, EN, HDTV]

Ответить на тему

Автор Сообщение

bessiaeb


Стаж: 5 лет 10 месяцев

Сообщений: 70

Откуда: Kosovo

Албания

Торрент-статистика

post 14-Авг-2016 03:37

Quote


Чемпионат Англии 2016-2017 / 1-й тур / Халл Сити – Лестер Сити / Sky Sports 1 HD

Вид спорта: Футбол
Дата/Год выпуска: 13.08.2016
Язык комментариев: английский
Описание:>>> LiNKLE - PRESENTS <<<

EPL.2016.08.13.Hull.City.Vs.Leicester.City.720p.HDTV.x264-LiNKLE

RELEASE DATE ..... <====> 2016.08.13
SOURCE ........... <====> HDTV
GENRE ............ <====> Sports Football
RESOLUTION ....... <====> 1280 x 720
CRF .............. <====> 22
AUDIO CODEC ...... <====> AC3
VIDEO CODEC ...... <====> x264
LANGUAGE ......... <====> English

Автор рипа/записи: LiNKLE
Качество: HDTV
Формат видео: MKV
Видео: x264, 1280x720, 50 fps, 4000 kbps
Аудио: AC3, 6 ch, 384 kbps
1h 37mn
General
Unique ID : 0 (0x0)
Complete name : /home/besber/downloads/manual/epl.2016.08.13.hull.city.vs.leicester.city.720p.hdtv.x264-linkle.mkv
Format : Matroska
Format version : Version 4 / Version 2
File size : 3.10 GiB
Duration : 1h 38mn
Overall bit rate : 4 488 Kbps
Encoded date : UTC 2010-02-22 21:41:29
Writing application : no_variable_data
Writing library : no_variable_data

Video
ID : 1
Format : AVC
Format/Info : Advanced Video Codec
Format profile : High@L4.1
Format settings, CABAC : Yes
Format settings, ReFrames : 5 frames
Codec ID : V_MPEG4/ISO/AVC
Duration : 1h 38mn
Bit rate : 4 015 Kbps
Width : 1 280 pixels
Height : 720 pixels
Display aspect ratio : 16:9
Frame rate mode : Variable
Frame rate : 50.000 fps
Color space : YUV
Chroma subsampling : 4:2:0
Bit depth : 8 bits
Scan type : Progressive
Bits/(Pixel*Frame) : 0.087
Stream size : 2.77 GiB (89%)
Writing library : x264 core 148 r2705 3f5ed56
Encoding settings : cabac=1 / ref=5 / deblock=1:0:0 / analyse=0x3:0x113 / me=umh / subme=8 / psy=1 / psy_rd=1.00:0.00 / mixed_ref=1 / me_range=16 / chroma_me=1 / trellis=1 / 8x8dct=1 / cqm=0 / deadzone=21,11 / fast_pskip=1 / chroma_qp_offset=-2 / threads=12 / lookahead_threads=2 / sliced_threads=0 / nr=0 / decimate=1 / interlaced=0 / bluray_compat=0 / constrained_intra=0 / bframes=3 / b_pyramid=2 / b_adapt=2 / b_bias=0 / direct=3 / weightb=1 / open_gop=0 / weightp=2 / keyint=250 / keyint_min=25 / scenecut=40 / intra_refresh=0 / rc_lookahead=50 / rc=crf / mbtree=1 / crf=22.0 / qcomp=0.60 / qpmin=0 / qpmax=69 / qpstep=4 / ip_ratio=1.40 / aq=1:1.00
Language : English
Default : Yes
Forced : No
Matrix coefficients : BT.709-5, BT.1361, IEC 61966-2-4 709, SMPTE RP177

Audio
ID : 2
Format : AC-3
Format/Info : Audio Coding 3
Mode extension : CM (complete main)
Format settings, Endianness : Big
Codec ID : A_AC3
Duration : 1h 38mn
Bit rate mode : Constant
Bit rate : 384 Kbps
Channel(s) : 6 channels
Channel positions : Front: L C R, Side: L R, LFE
Sampling rate : 48.0 KHz
Bit depth : 16 bits
Compression mode : Lossy
Stream size : 271 MiB (9%)
Default : Yes
Forced : No
No screens
2-1
Profile PM
Ответить на тему