Чемпионат Англии 2016-17 / Премьер-лига / 01-й тур / Эвертон - Тоттенхэм / Viasat Jalkapallo HD [13.08.2016, 1080i, H.264, FIN, HDTV, SAT]

Ответить на тему

Автор Сообщение

K. Valera


Стаж: 4 года 7 месяцев

Сообщений: 781

Украина

Торрент-статистика

post 14-Авг-2016 13:54

Quote


Чемпионат Англии 2016-17 / Премьер-лига / 01-й тур / Эвертон - Тоттенхэм / Viasat Jalkapallo HD




Год выпуска: 13.08.2016
Вид : Футбол
Релиз:
Aвтор рипа: K. Valera
Продолжительность: *
Канал:
Комментарий: Профессиональный
Язык комментариев: Финский
Качество: HDTV / Формат: *.ts / Видео Кодек: AVC / Аудио Кодек: MPEG
Видео: 1920x1080 (16/9), 25,000 fps, 9 484 Kbps
Аудио: 192 Kbps, 48 KHz, MPEG mp2 2.0 channels (Finnish)
Запись видео:
Программа корректировки видео: Cypheros TS-Doctor ver. 1.2.22

<< 01:42:06 >>
Пока качаешь, слушай - ar Morow.com ! The Prog Radio ! The Best Progressive Rock of Yesterday and Today... ar

Код:

General
ID                             : 77 (0x4D)
Complete name                  : E:\Everton – Tottenham Viasat Jalkapallo HD.ts
Format                         : MPEG-TS
File size                      : 7.26 GiB
Duration                       : 1h 42mn
Overall bit rate mode          : Variable
Overall bit rate               : 10.2 Mbps

Video
ID                             : 1545 (0x609)
Menu ID                        : 7386 (0x1CDA)
Format                         : AVC
Format/Info                    : Advanced Video Codec
Format profile                 : Main@L4
Format settings, CABAC         : Yes
Format settings, ReFrames      : 4 frames
Codec ID                       : 27
Duration                       : 1h 42mn
Bit rate                       : 9 484 Kbps
Width                          : 1 920 pixels
Height                         : 1 080 pixels
Display aspect ratio           : 16:9
Frame rate                     : 25.000 fps
Color space                    : YUV
Chroma subsampling             : 4:2:0
Bit depth                      : 8 bits
Scan type                      : Interlaced
Scan order                     : Top Field First
Bits/(Pixel*Frame)             : 0.183
Stream size                    : 6.76 GiB (93%)
Color range                    : Limited
Color primaries                : BT.709
Transfer characteristics       : BT.709
Matrix coefficients            : BT.709

Audio
ID                             : 3388 (0xD3C)
Menu ID                        : 7386 (0x1CDA)
Format                         : MPEG Audio
Format version                 : Version 1
Format profile                 : Layer 2
Codec ID                       : 3
Duration                       : 1h 42mn
Bit rate mode                  : Constant
Bit rate                       : 192 Kbps
Channel(s)                     : 2 channels
Sampling rate                  : 48.0 KHz
Compression mode               : Lossy
Delay relative to video        : -679ms
Stream size                    : 140 MiB (2%)
Language                       : Finnish

Menu
ID                             : 592 (0x250)
Menu ID                        : 7386 (0x1CDA)
Duration                       : 1h 42mn
List                           : 1545 (0x609) (AVC) / 3388 (0xD3C) (MPEG Audio, Finnish)
Language                       :  / Finnish
Maximum bit rate               : 216000000
Скриншоты

_________________
webmoney: R102437980674, U865336828210, Bitcoin: 1C5RGE4438bq3VfVUEfcw63rmYrb6Sgr29. Файлы не конвертирую. Готов реанимировать почти все свои раздачи.
Profile PM
Ответить на тему