Davis Cup 2017 / World Group / 1 й круг / Аргентина - Италия / Матч 3 / Карлос Берлок, Леонардо Майер - Симоне Болелли, Фабио Фоньини / Carlos Berlocq, Leonardo Mayer - Simone Bolelli, Fabio Fognini / SuperTennis HD [04.02.2017, HD, 1080i, 25 fps, IT

Ответить на тему

Автор Сообщение

oleg_1954


Стаж: 6 лет 11 месяцев

Сообщений: 8432

Откуда: Волгоград

Россия

Торрент-статистика

post 05-Фев-2017 14:49

Quote


Carlos Berlocq, Leonardo Mayer - Simone Bolelli, Fabio Fognini. Davis Cup 2017. World Group. 1st Round. Argentina - Italy. Rubber 3
Карлос Берлок, Леонардо Майер - Симоне Болелли, Фабио Фоньини. Кубок Дэвиса 2017. Мировая Группа. 1 й круг. Аргентина - Италия. Игра 3

Год выпуска: 2017 Вид спорта: Теннис
Участники: К.Берлок, Л.Майер - С.Болелли, Ф.Фоньини. Кубок Дэвиса 2017. Мировая Группа. 1 й круг. Аргентина - Италия. Игра 3
Комментарий: Профессиональный Итальянский
Качество: IPTVRip
Формат: MKV
Видео кодек: H.264
Аудио кодек: MP2
Видео: MPEG4 Video H.264 1920x1080 25 fps Bit rate 4320 Kbps Aspect Ratio 16:9
Аудио: Итальянский MP2 48000 Hz stereo 256 Kbps
Спасибо leomessi00 за предоставленный исходный файл
03:45:35=02:11:18+01:34:17
File: "C.Berlocq, L.Mayer - S.Bolelli, F.Fognini.Davis Cup 2017.R1.Rub.3.HDTV.1080i.ITA.1.mkv"
Format : Matroska
Format version : Version 4 / Version 2
File size : 4.20 GiB
Duration : 2h 11mn
Overall bit rate mode : Variable
Overall bit rate : 4 580 Kbps
Movie name : C.Berlocq, L.Mayer - S.Bolelli, F.Fognini.Davis Cup 2017.R1.Rub.3
Encoded date : UTC 2010-02-22 21:41:31
Writing application : mkvmerge v5.9.0 ('On The Loose') built on Dec 9 2012 15:37:01
Writing library : libebml v1.3.0 + libmatroska v1.4.0

Video
ID : 1
Format : AVC
Format/Info : Advanced Video Codec
Format profile : High@L4.0
Format settings, CABAC : Yes
Format settings, ReFrames : 3 frames
Codec ID : V_MPEG4/ISO/AVC
Duration : 2h 11mn
Bit rate mode : Variable
Bit rate : 4 233 Kbps
Maximum bit rate : 4 320 Kbps
Width : 1 920 pixels
Height : 1 080 pixels
Display aspect ratio : 16:9
Frame rate mode : Constant
Frame rate : 25.000 fps
Color space : YUV
Chroma subsampling : 4:2:0
Bit depth : 8 bits
Scan type : Interlaced
Bits/(Pixel*Frame) : 0.082
Stream size : 3.88 GiB (92%)
Language : English
Default : Yes
Forced : No
Color primaries : BT.709
Transfer characteristics : BT.709
Matrix coefficients : BT.709

Audio
ID : 2
Format : MPEG Audio
Format version : Version 1
Format profile : Layer 2
Codec ID : A_MPEG/L2
Codec ID/Hint : MP2
Duration : 2h 11mn
Bit rate mode : Constant
Bit rate : 256 Kbps
Channel count : 2 channels
Sampling rate : 48.0 KHz
Compression mode : Lossy
Delay relative to video : -55ms
Stream size : 240 MiB (6%)
Language : Italian
Default : Yes
Forced : No

_________________
Donate:
Yandexmoney 410011809224246
Profile PM

redgreen91


Стаж: 3 года 7 месяцев

Сообщений: 5

Торрент-статистика

post 06-Фев-2017 10:29 (спустя 19 часов)

Quote


Спасибо!Сегодняшний пятый матч будете записывать?
Profile PM

oleg_1954


Стаж: 6 лет 11 месяцев

Сообщений: 8432

Откуда: Волгоград

Россия

Торрент-статистика

post 06-Фев-2017 10:33 (спустя 4 минуты)

Quote


redgreen91 писал(а):

Спасибо!Сегодняшний пятый матч будете записывать?
Вопрос к leomessi00

_________________
Donate:
Yandexmoney 410011809224246
Profile PM

leomessi00


Стаж: 6 лет 3 месяца

Сообщений: 59

Торрент-статистика

post 06-Фев-2017 22:40 (спустя 12 часов)

Quote


да,конечно
Profile PM
Ответить на тему