Davis Cup 2017 / World Group / 1 й круг / Аргентина - Италия / Матч 5 / Гидо Пелья - Фабио Фоньини / Guido Pella - Fabio Fognini / SuperTennis HD [06.02.2017, HD, 1080i, 25 fps, ITA, IPTV]

Ответить на тему

Автор Сообщение

oleg_1954


Стаж: 6 лет 11 месяцев

Сообщений: 8432

Откуда: Волгоград

Россия

Торрент-статистика

post 07-Фев-2017 12:34

Quote


Guido Pella - Fabio Fognini. Davis Cup 2017. World Group. 1st Round. Argentina - Italy. Rubber 5
Гидо Пелья - Фабио Фоньини. Кубок Дэвиса 2017. Мировая Группа. 1 й круг. Аргентина - Италия. Игра 5

Год выпуска: 2017 Вид спорта: Теннис
Участники: Гидо Пелья - Фабио Фоньини. Кубок Дэвиса 2017. Мировая Группа. 1 й круг. Аргентина - Италия. Игра 5
Комментарий: Профессиональный Итальянский
Качество: IPTVRip
Формат: MKV
Видео кодек: H.264
Аудио кодек: MP2
Видео: MPEG4 Video H.264 1920x1080 25 fps Bit rate 4320 Kbps Aspect Ratio 16:9
Аудио: Итальянский MP2 48000 Hz stereo 256 Kbps
Спасибо leomessi00 за предоставленный исходный файл
04:01:35=02:11:55+01:49:40
File "G.Pella - F.Fognini\G.Pella - F.Fognini.Davis Cup 2017.R1.Rub.5.HDTV.1080i.ITA.1.mkv"
Format : Matroska
Format version : Version 4 / Version 2
File size : 4.21 GiB
Duration : 2h 11mn
Overall bit rate mode : Variable
Overall bit rate : 4 572 Kbps
Movie name : G.Pella - F.Fognini.Davis Cup 2017.R1.Rub.5
Encoded date : UTC 2010-02-22 21:41:31
Writing application : mkvmerge v5.9.0 ('On The Loose') built on Dec 9 2012 15:37:01
Writing library : libebml v1.3.0 + libmatroska v1.4.0

Video
ID : 1
Format : AVC
Format/Info : Advanced Video Codec
Format profile : High@L4
Format settings, CABAC : Yes
Format settings, ReFrames : 3 frames
Codec ID : V_MPEG4/ISO/AVC
Duration : 2h 11mn
Bit rate mode : Variable
Bit rate : 4 225 Kbps
Maximum bit rate : 4 320 Kbps
Width : 1 920 pixels
Height : 1 080 pixels
Display aspect ratio : 16:9
Frame rate mode : Constant
Frame rate : 25.000 fps
Color space : YUV
Chroma subsampling : 4:2:0
Bit depth : 8 bits
Scan type : Interlaced
Scan type, store method : Separated fields
Scan order : Top Field First
Bits/(Pixel*Frame) : 0.081
Stream size : 3.89 GiB (92%)
Language : English
Default : Yes
Forced : No
Color range : Limited
Color primaries : BT.709
Transfer characteristics : BT.709
Matrix coefficients : BT.709

Audio
ID : 2
Format : MPEG Audio
Format version : Version 1
Format profile : Layer 2
Codec ID : A_MPEG/L2
Codec ID/Hint : MP2
Duration : 2h 11mn
Bit rate mode : Constant
Bit rate : 256 Kbps
Channel(s) : 2 channels
Sampling rate : 48.0 KHz
Compression mode : Lossy
Delay relative to video : 50ms
Stream size : 242 MiB (6%)
Language : Italian
Default : Yes
Forced : No

_________________
Donate:
Yandexmoney 410011809224246
Profile PM
Ответить на тему