Le Club Du Lundi / Клуб Понедельника / beIN SPORTS 2 HD [23.03.2015, 1080i, H.264, FR, HDTV, SAT]

Ответить на тему

Автор Сообщение

K. Valera


Стаж: 4 года 7 месяцев

Сообщений: 781

Украина

Торрент-статистика

post 25-Мар-2015 18:58

Quote


Le Club Du Lundi / Клуб Понедельника / beIN SPORTS 2 HD

Год выпуска: 23.03.2015
Вид спорта: Футбол
Релиз: rgfootball.net
Aвтор рипа: K. Valera
Продолжительность: 01:27:34
Комментарий: Профессиональный
Язык комментариев: Французский
Канал:
Качество: HDTV / Формат: *.ts / Видео Кодек: AVC / Аудио Кодек: MPEG
Видео: 1920x1080 (16/9), 25,000 fps, 8 Мбит/сек
Аудио : 192 Kbps, 48 KHz, MPEG mp2 2.0 channels
Запись видео: Openbox SX6 HD
Программа корректировки видео: Cypheros TS-Doctor ver. 1.2.22

Код:

General
ID                             : 1012 (0x3F4)
Complete name                  : E:\Le Club Du Lundi 23.03.2015 beIN SPORTS 2 HD.ts
Format                         : MPEG-TS
File size                      : 4.86 GiB
Duration                       : 1h 27mn
Overall bit rate mode          : Variable
Overall bit rate               : 7 952 Kbps

Video
ID                             : 621 (0x26D)
Menu ID                        : 6302 (0x189E)
Format                         : AVC
Format/Info                    : Advanced Video Codec
Format profile                 : High@L4.0
Format settings, CABAC         : Yes
Format settings, ReFrames      : 3 frames
Format settings, GOP           : M=4, N=24
Codec ID                       : 27
Duration                       : 1h 27mn
Bit rate                       : 7 365 Kbps
Width                          : 1 920 pixels
Height                         : 1 080 pixels
Display aspect ratio           : 16:9
Frame rate                     : 25.000 fps
Standard                       : Component
Color space                    : YUV
Chroma subsampling             : 4:2:0
Bit depth                      : 8 bits
Scan type                      : Interlaced
Scan order                     : Top Field First
Bits/(Pixel*Frame)             : 0.142
Stream size                    : 4.50 GiB (93%)
Encryption                     : Seca Mediaguard 1/2
Color primaries                : BT.709
Transfer characteristics       : BT.709
Matrix coefficients            : BT.709
Color range                    : Limited

Audio
ID                             : 622 (0x26E)
Menu ID                        : 6302 (0x189E)
Format                         : MPEG Audio
Format version                 : Version 1
Format profile                 : Layer 2
Codec ID                       : 4
Duration                       : 1h 27mn
Bit rate mode                  : Constant
Bit rate                       : 192 Kbps
Channel(s)                     : 2 channels
Sampling rate                  : 48.0 KHz
Compression mode               : Lossy
Delay relative to video        : 30ms
Stream size                    : 120 MiB (2%)
Language                       : French
Encryption                     : Seca Mediaguard 1/2

_________________
webmoney: R102437980674, U865336828210, Bitcoin: 1C5RGE4438bq3VfVUEfcw63rmYrb6Sgr29. Файлы не конвертирую. Готов реанимировать почти все свои раздачи.


Последний раз редактировалось: K. Valera (2015-05-12 19:29), всего редактировалось 1 раз
Profile PM

Sheriff


Стаж: 2 года 3 месяца

Сообщений: 20

Молдавия

Торрент-статистика

post 12-Май-2015 19:18 (спустя 1 месяц 18 дней)

Quote


а можно только для 36 тура?
Profile PM

K. Valera


Стаж: 4 года 7 месяцев

Сообщений: 781

Украина

Торрент-статистика

post 12-Май-2015 19:38 (спустя 19 минут)

Quote


Поздно, уже только 37 тур нужно ждать. Ну и Le club des champions и Le club Europa League на днях будет.

P.S. Torrent скачан: 8 раз (из них 1 раз точно я, стоит ли тратить на это время?)

_________________
webmoney: R102437980674, U865336828210, Bitcoin: 1C5RGE4438bq3VfVUEfcw63rmYrb6Sgr29. Файлы не конвертирую. Готов реанимировать почти все свои раздачи.
Profile PM

Sheriff


Стаж: 2 года 3 месяца

Сообщений: 20

Молдавия

Торрент-статистика

post 12-Май-2015 21:26 (спустя 1 час 48 минут)

Quote


K. Valera писал(а):

Поздно, уже только 37 тур нужно ждать. Ну и Le club des champions и Le club Europa League на днях будет.

P.S. Torrent скачан: 8 раз (из них 1 раз точно я, стоит ли тратить на это время?)
ok
a обзоры лиги 2 можеши записать?
Profile PM

K. Valera


Стаж: 4 года 7 месяцев

Сообщений: 781

Украина

Торрент-статистика

post 12-Май-2015 22:04 (спустя 37 минут)

Quote


Что-то там есть, но я не вникал. И так хватает.

_________________
webmoney: R102437980674, U865336828210, Bitcoin: 1C5RGE4438bq3VfVUEfcw63rmYrb6Sgr29. Файлы не конвертирую. Готов реанимировать почти все свои раздачи.
Profile PM

SlimShady


Стаж: 3 года 8 месяцев

Сообщений: 44

Откуда: Детройт

США

Торрент-статистика

post 24-Май-2015 11:43 (спустя 11 дней)

Quote


K. Valera писал(а):

Что-то там есть, но я не вникал. И так хватает.
Может тогда поделишься тем, как ты это делаешь? (ссылки программы, способ)

_________________
vk.com/mcfc_okay
Profile PM

K. Valera


Стаж: 4 года 7 месяцев

Сообщений: 781

Украина

Торрент-статистика

post 24-Май-2015 19:19 (спустя 7 часов)

Quote


Как писали классики "... может ещё ключи от квартиры?"

Программы не секрет, тут смотрю: http://www.programme-tv.net/programme/canalsat-5/
Если что особо интересует, пишите.

_________________
webmoney: R102437980674, U865336828210, Bitcoin: 1C5RGE4438bq3VfVUEfcw63rmYrb6Sgr29. Файлы не конвертирую. Готов реанимировать почти все свои раздачи.
Profile PM
Ответить на тему