Чемпионат Франции 2014-15 / League 3 / 34-й тур / Бур-Перонна - Булонь / Ma Chaîne Sport HD [22.05.2015, 1080i, H.264, FR, HDTV, SAT]

Ответить на тему

Автор Сообщение

K. Valera


Стаж: 4 года 7 месяцев

Сообщений: 778

Украина

Торрент-статистика

post 28-Май-2015 09:41

Quote


Чемпионат Франции 2014-15 / League 3 / 34-й тур / Бур-Перонна - Булонь / Ma Chaîne Sport HD

Год выпуска: 22.05.2015
Вид спорта: Футбол
Релиз:
Aвтор рипа: K. Valera
Продолжительность: *
Канал:
Комментарий: Профессиональный
Язык комментариев: Французский
Качество: HDTV / Формат: *.ts / Видео Кодек: AVC / Аудио Кодек: AC-3
Видео: 1920x1080 (16/9), 25,000 fps, 5.9 Мбит/сек
Аудио: 192 Kbps, 48 KHz, Dolby AC-3 2.0 channels Французский
Запись видео: Openbox SX6 HD
Программа корректировки видео: Cypheros TS-Doctor ver. 1.2.22
<< 00:53:51 + 01:08:57 >>

Код:

General
ID                             : 1084 (0x43C)
Complete name                  : E:\Чемпионат Франции 2014-15 Лига 3 34-й тур Бур-Перонна - Булонь MA CHAINE SPORT HD\01. half MA CHAINE SPORT HD.ts
Format                         : MPEG-TS
File size                      : 2.23 GiB
Duration                       : 53mn 50s
Overall bit rate mode          : Variable
Overall bit rate               : 5 939 Kbps

Video
ID                             : 310 (0x136)
Menu ID                        : 9403 (0x24BB)
Format                         : AVC
Format/Info                    : Advanced Video Codec
Format profile                 : High@L4.0
Format settings, CABAC         : Yes
Format settings, ReFrames      : 4 frames
Codec ID                       : 27
Duration                       : 53mn 50s
Bit rate                       : 5 451 Kbps
Width                          : 1 920 pixels
Height                         : 1 080 pixels
Display aspect ratio           : 16:9
Frame rate                     : 25.000 fps
Standard                       : Component
Color space                    : YUV
Chroma subsampling             : 4:2:0
Bit depth                      : 8 bits
Scan type                      : MBAFF
Scan order                     : Top Field First
Bits/(Pixel*Frame)             : 0.105
Stream size                    : 2.05 GiB (92%)
Encryption                     : Seca Mediaguard 1/2
Color primaries                : BT.709
Transfer characteristics       : BT.709
Matrix coefficients            : BT.709
Color range                    : Limited

Audio
ID                             : 321 (0x141)
Menu ID                        : 9403 (0x24BB)
Format                         : AC-3
Format/Info                    : Audio Coding 3
Mode extension                 : CM (complete main)
Format settings, Endianness    : Big
Codec ID                       : 6
Duration                       : 53mn 50s
Bit rate mode                  : Constant
Bit rate                       : 192 Kbps
Channel(s)                     : 2 channels
Channel positions              : Front: L R
Sampling rate                  : 48.0 KHz
Bit depth                      : 16 bits
Compression mode               : Lossy
Delay relative to video        : 76ms
Stream size                    : 73.9 MiB (3%)
Language                       : French
Encryption                     : Seca Mediaguard 1/2
2:0

_________________
webmoney: R102437980674, U865336828210, Bitcoin: 1C5RGE4438bq3VfVUEfcw63rmYrb6Sgr29. Файлы не конвертирую. Готов реанимировать почти все свои раздачи.
Profile PM

K. Valera


Стаж: 4 года 7 месяцев

Сообщений: 778

Украина

Торрент-статистика

post 28-Май-2015 09:59 (спустя 18 минут)

Quote


Даже не знаю в какую тему правильно его размещать.

По ходу матча показывают небольшие фрагменты других матчей, но навряд ли это симулкаст в прямом смысле.

_________________
webmoney: R102437980674, U865336828210, Bitcoin: 1C5RGE4438bq3VfVUEfcw63rmYrb6Sgr29. Файлы не конвертирую. Готов реанимировать почти все свои раздачи.
Profile PM
Ответить на тему