Журнал Лиги Чемпионов 2010-11 / НТВ+ [30.04.2011, SD, XviD, RU , SAT]

Ответить на тему

Автор Сообщение

vania


Стаж: 8 лет

Сообщений: 250

Украина

Торрент-статистика

post 30-Апр-2011 17:48

Quote


Журнал Лиги Чемпионов 2010-11 / НТВ+ [30.04.2011, SD, XviD, RU , SAT]

Год выпуска: 2011
Вид спорта: ФУТБОЛ
Продолжительность: 23:55
Качество: SATRip
Формат: AVI
Видео кодек: XviD
Аудио кодек: MPEG Audio
Видео: Видео: 704x400 , 25 fps, XviD build 50 ~1600 kbps avg, 0.18 bit/pixel
Аудио: Аудио: 48 kHz, MPEG Layer 3, 2 ch, ~128.00 kbps avg
Доп. информация: Рип собственный.

Profile PM

post 30-Апр-2011 17:49 (спустя 1 минута)


Топик был перенесен из форума <b><a class=\"gen\" href=\"viewforum.php?f=30\">Релизы пользователей</a></b> в форум <b><a class=\"gen\" href=\"viewforum.php?f=13\">Лига Чемпионов 2010-11</a></b><br /><br /><a class=\"gen\" href=\"profile.php?mode=viewprofile&u=39\">R1C@RDO</a>
 

Campione


Стаж: 8 лет

Сообщений: 84

Украина

Торрент-статистика

post 30-Апр-2011 23:25 (спустя 5 часов)

Quote


vania
спасибо
Profile PM

vania


Стаж: 8 лет

Сообщений: 250

Украина

Торрент-статистика

post 30-Апр-2011 23:27 (спустя 2 минуты)

Quote


Campione ad ab
Profile PM

dav7dbecks


Стаж: 8 лет

Сообщений: 18973

Откуда: там где жизнь ничего не стоит, иногда обретает ценность смерть

СССР

Торрент-статистика

post 01-Май-2011 12:35 (спустя 13 часов)

Quote


vania
704x400 а Скриншоты 704x398,
Аудио: 48 kHz, MPEG Layer 3, 2 ch, ~128.00 kbps avg а это как понимать?

_________________
l Manchester is Red
голосуй
телеграмм канал https://t.me/rgfnews
телеграмм чат https://t.me/rgfootballtalk
Profile PM

doc


Стаж: 7 лет 11 месяцев

Сообщений: 255

Откуда: Томск

Россия

Торрент-статистика

post 04-Май-2011 04:52 (спустя 2 дня 16 часов)

Quote


dav1d becks
E:\Футбол\Лигачемпионов.avi
General
Complete name : E:\Футбол\Лигачемпионов.avi
Format : AVI
Format/Info : Audio Video Interleave
File size : 538 MiB
Duration : 23mn 55s
Overall bit rate : 3144 Kbps
Writing library : VirtualDub build 32817/release
Video
Format : MPEG-4 Visual
Format settings, BVOP : No
Format settings, QPel : No
Format settings, GMC : No warppoints
Format settings, Matrix : Default
Codec ID : XVID
Codec ID/Hint : XviD
Duration : 23mn 55s
Bit rate : 1599 Kbps
Width : 702 pixels
Height : 398 pixels
Display aspect ratio : 16/9
Frame rate : 25.000 fps
Resolution : 8 bits
Colorimetry : 4:2:0
Scan type : Progressive
Bits/(Pixel*Frame) : 0.229
Stream size : 274 MiB (51%)
Writing library : XviD 0.0.03 (UTC 2002-12-09)
Audio
Format : PCM
Format settings, Endianness : Little
Format settings, Sign : Unsigned
Codec ID : 1
Codec ID/Hint : Microsoft
Duration : 23mn 55s
Bit rate mode : Constant
Bit rate : 1536 Kbps
Channel(s) : 2 channels
Sampling rate : 48.0 KHz
Resolution : 16 bits
Stream size : 263 MiB (49%)
Interleave, duration : 40 ms (1.00 video frame)
Interleave, preload duration : 500 ms
Возможно при конвертировании сделал опечатку в написании битрейта аудио ab

_________________
Profile PM

post 06-Июл-2014 13:07 (спустя 3 года 2 месяца)


Топик был перенесен из форума Лига Чемпионов 2010-11 в форум Лига Чемпионов

fuххer666
 
Ответить на тему