Лига Чемпионов 2011-12 / 1/8 финала / 4-й день / Обзор матчей 22.02.2012 / НТВ+ [2012, SD, MPEG, RU, IPTV]

Ответить на тему

Автор Сообщение

VicJohnson


Стаж: 7 лет 1 месяц

Сообщений: 170

Россия

Торрент-статистика

post 23-Фев-2012 02:30

Quote


Лига Чемпионов 2011-12 / 1/8 финала / 4-й день / Обзор матчей 22.02.2012 / НТВ+


Год выпуска: 2012
Вид спорта: футбол
Продолжительность: 00:28:04
Язык комментариев: русский
Участники: Дементьев, Шмурнов, Мельников
Автор записи: VicJohnson

Канал:


Описание:

В обзоре представлены первые матчи 1/8 финала Лиги Чемпионов:
Базель (Швейцария) - Бавария (Германия)
Марсель (Франция) - Интер (Италия)


Обзор включает также фрагменты ответного матча 1/16 финала Лиги Европы:
Манчестер Сити (Англия) - Порту (Португалия)

Качество: IPTV
Формат: TS
Видео кодек: MPEG2
Аудио кодек: MPEG Audio Layer 2
Видео: 704x576 (16:9), 2667 Kbps, 25.00fps
Аудио: 192kbps, 48000Hz, 2 chn
Базель (Швейцария) - Бавария (Германия) - 1:0
Марсель (Франция) - Интер (Италия) - 1:0
Манчестер Сити (Англия) - Порту (Португалия) - 4:0
General
ID : 16858 (0x41DA)
Complete name : G:\My Torrent Releases\Лига Чемпионов 2011-12 - 1-8 финала - 4-й день - Обзор матчей 22.02.2012 - НТВ+.ts
Format : MPEG-TS
File size : 604 MiB
Duration : 28mn 3s
Overall bit rate mode : Variable
Overall bit rate : 3 010 Kbps

Video
ID : 69 (0x45)
Menu ID : 1 (0x1)
Format : MPEG Video
Format version : Version 2
Format profile : Main@Main
Format settings, BVOP : Yes
Format settings, Matrix : Custom
Format settings, GOP : M=3, N=24
Codec ID : 2
Duration : 28mn 2s
Bit rate mode : Variable
Bit rate : 2 667 Kbps
Maximum bit rate : 15.0 Mbps
Width : 704 pixels
Height : 576 pixels
Display aspect ratio : 16:9
Frame rate : 25.000 fps
Standard : PAL
Color space : YUV
Chroma subsampling : 4:2:0
Bit depth : 8 bits
Scan type : Progressive
Scan order : Top Field First
Compression mode : Lossy
Bits/(Pixel*Frame) : 0.263
Stream size : 535 MiB (89%)

Audio
ID : 68 (0x44)
Menu ID : 1 (0x1)
Format : MPEG Audio
Format version : Version 1
Format profile : Layer 2
Codec ID : 3
Duration : 28mn 3s
Bit rate mode : Constant
Bit rate : 192 Kbps
Channel(s) : 2 channels
Sampling rate : 48.0 KHz
Compression mode : Lossy
Delay relative to video : -1s 5ms
Stream size : 38.5 MiB (6%)
Language : Russian


Последний раз редактировалось: VicJohnson (2014-10-27 03:00), всего редактировалось 5 раз(а)
Profile PM

Rience


Стаж: 5 лет 11 месяцев

Сообщений: 37

Откуда: Краснодар

Россия

Торрент-статистика

post 23-Фев-2012 03:18 (спустя 48 минут)

Quote


При воспроизведение тоже вытянутая картинка...

_________________
Profile PM

VicJohnson


Стаж: 7 лет 1 месяц

Сообщений: 170

Россия

Торрент-статистика

post 23-Фев-2012 03:28 (спустя 9 минут)

Quote


Rience писал(а):

При воспроизведение тоже вытянутая картинка...
Проверьте настройки Вашего плейера.

В Media Player Classic (настройки по умолчанию) все правильно показывает.
Profile PM

yamaha


Стаж: 7 лет 1 месяц

Сообщений: 1357

Откуда: Карелия

Камбоджа

Торрент-статистика

post 23-Фев-2012 04:46 (спустя 1 час 18 минут)

Quote


VicJohnson
Скрины то тогда лучше делать в анаморфе не?
Profile PM

VicJohnson


Стаж: 7 лет 1 месяц

Сообщений: 170

Россия

Торрент-статистика

post 23-Фев-2012 10:49 (спустя 6 часов)

Quote


yamaha

Научите: сделаю. :-)
Profile PM

H2ROS


Стаж: 6 лет 11 месяцев

Сообщений: 10

Испания

Торрент-статистика

post 23-Фев-2012 11:13 (спустя 24 минуты)

Quote


смотрел на телике, картинка нормальная
Profile PM

fuckyoubeach


Стаж: 7 лет 1 месяц

Сообщений: 55

Откуда: г. Новороссийск

Россия

Торрент-статистика

post 23-Фев-2012 12:45 (спустя 1 час 31 минута)

Quote


H2ROS писал(а):

смотрел на телике, картинка нормальная
, у меня также, просто в настройках настраиваешь формат нужный и всё ок

_________________
Profile PM

VicJohnson


Стаж: 7 лет 1 месяц

Сообщений: 170

Россия

Торрент-статистика

post 23-Фев-2012 12:55 (спустя 10 минут)

Quote


Переделал скриншоты в анаморфе.
Profile PM

AS59


Стаж: 7 лет 1 месяц

Сообщений: 142

Торрент-статистика

post 23-Фев-2012 13:05 (спустя 9 минут)

Quote


VicJohnson
Спасибо! Качество гуд! Соотношение сторон в поряде! af
Profile PM

VicJohnson


Стаж: 7 лет 1 месяц

Сообщений: 170

Россия

Торрент-статистика

post 23-Фев-2012 14:32 (спустя 1 час 27 минут)

Quote


AS95 писал(а):

VicJohnson
Спасибо! Качество гуд! Соотношение сторон в поряде! af
Да там ничего сложного не было: вовремя нажать кнопку RECORD на пульте для компьютера (есть у меня такой от Microsoft).
Правда, когда записывал, половину проспал. ap
Profile PM

post 11-Июн-2015 13:05 (спустя 3 года 3 месяца)


Топик был перенесен из форума Лига Чемпионов 2011-12 в форум Лига Чемпионов

fuххer666
 
Ответить на тему