Чемпионат Аргентины 2015 / 1-й тур / Обзор матчей / Resúmenes Fútbol Argentino / Canal+ Fútbol HD [19.02.2015, 1080i, H.264, ES, HDTV, SAT]

Ответить на тему

Автор Сообщение

K. Valera


Стаж: 4 года 7 месяцев

Сообщений: 779

Украина

Торрент-статистика

post 20-Фев-2015 16:36

Quote


Чемпионат Аргентины 2015 / Обзор матчей 1-го тура / Resúmenes Fútbol Argentino / Canal+ Fútbol HD

Год выпуска: 19.02.2015
Вид спорта: Футбол
Релиз: rgfootball.net
Aвтор рипа: K. Valera
Продолжительность: *
Канал:
Комментарий: Профессиональный
Язык комментариев: Испанский
Качество: HDTV / Формат: *.ts / Видео Кодек: AVC / Аудио Кодек: AC-3
Видео: 1920x1080 (16/9), 25,000 fps,11,2 Мбит/сек
Аудио 1: 192 Kbps, 48 KHz, Dolby AC-3 2.0 channels Испанский
Аудио 2: 192 Kbps, 48 KHz, Dolby AC-3 2.0 channels Испанский
Запись видео: Openbox SX6 HD
Программа корректировки видео: Cypheros TS-Doctor ver. 1.2.22
<< 00:50:56 >>

Код:

General
ID                             : 1056 (0x420)
Complete name                  : E:\HIGHLIGHTS LIGA ARGENTINA.ts
Format                         : MPEG-TS
File size                      : 3.99 GiB
Duration                       : 50mn 55s
Overall bit rate mode          : Variable
Overall bit rate               : 11.2 Mbps

Video
ID                             : 161 (0xA1)
Menu ID                        : 29960 (0x7508)
Format                         : AVC
Format/Info                    : Advanced Video Codec
Format profile                 : High@L4.0
Format settings, CABAC         : Yes
Format settings, ReFrames      : 4 frames
Codec ID                       : 27
Duration                       : 50mn 54s
Bit rate                       : 10.3 Mbps
Width                          : 1 920 pixels
Height                         : 1 080 pixels
Display aspect ratio           : 16:9
Frame rate                     : 25.000 fps
Color space                    : YUV
Chroma subsampling             : 4:2:0
Bit depth                      : 8 bits
Scan type                      : MBAFF
Scan order                     : Top Field First
Bits/(Pixel*Frame)             : 0.198
Stream size                    : 3.66 GiB (92%)
Encryption                     : Nagravision
Color primaries                : BT.709
Transfer characteristics       : BT.709
Matrix coefficients            : BT.709
Color range                    : Limited

Audio #1
ID                             : 86 (0x56)
Menu ID                        : 29960 (0x7508)
Format                         : AC-3
Format/Info                    : Audio Coding 3
Mode extension                 : CM (complete main)
Format settings, Endianness    : Big
Codec ID                       : 6
Duration                       : 50mn 55s
Bit rate mode                  : Constant
Bit rate                       : 192 Kbps
Channel(s)                     : 2 channels
Channel positions              : Front: L R
Sampling rate                  : 48.0 KHz
Bit depth                      : 16 bits
Compression mode               : Lossy
Delay relative to video        : -1s 39ms
Stream size                    : 69.9 MiB (2%)
Language                       : Spanish
Encryption                     : Nagravision

Audio #2
ID                             : 87 (0x57)
Menu ID                        : 29960 (0x7508)
Format                         : AC-3
Format/Info                    : Audio Coding 3
Mode extension                 : CM (complete main)
Format settings, Endianness    : Big
Codec ID                       : 6
Duration                       : 50mn 55s
Bit rate mode                  : Constant
Bit rate                       : 192 Kbps
Channel(s)                     : 2 channels
Channel positions              : Front: L R
Sampling rate                  : 48.0 KHz
Bit depth                      : 16 bits
Compression mode               : Lossy
Delay relative to video        : -1s 27ms
Stream size                    : 69.9 MiB (2%)
Language                       : qaa
Encryption                     : Nagravision

_________________
webmoney: R102437980674, U865336828210, Bitcoin: 1C5RGE4438bq3VfVUEfcw63rmYrb6Sgr29. Файлы не конвертирую. Готов реанимировать почти все свои раздачи.


Последний раз редактировалось: K. Valera (2015-02-26 18:50), всего редактировалось 1 раз
Profile PM

Myachikov


Стаж: 6 лет

Сообщений: 80

Откуда: Человек мира

СССР

Торрент-статистика

post 20-Фев-2015 22:25 (спустя 5 часов)

Quote


Вот это аргентинцы выдумщики! 30 клубов в примере!
Profile PM

Evgendo


Стаж: 4 года 4 месяца

Сообщений: 92

Бразилия

Торрент-статистика

post 20-Фев-2015 22:35 (спустя 10 минут)

Quote


во спасибо, надеюсь вы и дальше будете аргентину выкладывать и в качестве 720
Profile PM

Pepperoni


Стаж: 6 лет

Сообщений: 3285

Откуда: Milan

Италия

Торрент-статистика

post 21-Фев-2015 00:36 (спустя 2 часа)

Quote


Myachikov писал(а):

Вот это аргентинцы выдумщики! 30 клубов в примере!
Спецоперация по возвращению в элиту Уракана и Банфилда прошла успешно. И никаких повышений в классе не надо))

_________________
Profile PM

llecha


Стаж: 3 года 11 месяцев

Сообщений: 271

Торрент-статистика

post 21-Фев-2015 01:24 (спустя 48 минут)

Quote


Pepperoni писал(а):

Myachikov писал(а):

Вот это аргентинцы выдумщики! 30 клубов в примере!
Спецоперация по возвращению в элиту Уракана и Банфилда прошла успешно. И никаких повышений в классе не надо))
Пошли по советскому пути, главное не дойти до российского финала.
Profile PM

volk_9


Стаж: 5 лет 3 месяца

Сообщений: 50

Россия

Торрент-статистика

post 21-Фев-2015 11:13 (спустя 9 часов)

Quote


кроме того что 29 игр в один круг, так еще и один дополнительный тур против "принципиального соперника".

т.е. 15 четко очерченных не пересекающихся "дерби".

_________________
non svegliare il lupo che dorme!
Profile PM

Pepperoni


Стаж: 6 лет

Сообщений: 3285

Откуда: Milan

Италия

Торрент-статистика

post 21-Фев-2015 14:16 (спустя 3 часа)

Quote


llecha писал(а):

Pepperoni писал(а):

Myachikov писал(а):

Вот это аргентинцы выдумщики! 30 клубов в примере!
Спецоперация по возвращению в элиту Уракана и Банфилда прошла успешно. И никаких повышений в классе не надо))
Пошли по советскому пути, главное не дойти до российского финала.
Аргентинцы очень дружелюбны и любят футбол, им это расширение только в радость))

_________________
Profile PM

Lamin80


Стаж: 3 года 9 месяцев

Сообщений: 240

Откуда: Горловка Донецкая Народная Республика

Россия

Торрент-статистика

post 21-Фев-2015 15:01 (спустя 45 минут)

Quote


голы ащще не айс)) это у них разделение однокруговых систем типа апертура и клаусура с последущим плэй-офф?
Profile PM

Pepperoni


Стаж: 6 лет

Сообщений: 3285

Откуда: Milan

Италия

Торрент-статистика

post 21-Фев-2015 15:05 (спустя 4 минуты)

Quote


Lamin80 писал(а):

голы ащще не айс)) это у них разделение однокруговых систем типа апертура и клаусура с последущим плэй-офф?
Да, сначала 30 туров между 30 командами, потом плейофф за места в Кубке Либертадорес и Кубке Судамерикана. 2 команды вылетают.
А что до голов, так это только первый тур, всё впереди.
С 2016 года начнется сокращение команд в элите до привычного количества.
В первой половине 2016-го будет 30 команда. Три команды вылетят, одна будет повышена из Примеры Б.
С августа 2016-го по июнь 2017-го уже будет 28 команд. 4 команды вылетят, 2 будут повышены из Примеры Б.
С августа 2017-го по июнь 2018-го уже будет 26 команд. Опять 4 команды вылетят, 2 будут повышены из Примеры Б.
С августа 2018-го по июнь 2019-го уже будет 24 команды. 4 команды вылетят, 2 будут повышены из Примеры Б.
Как будет дальше, покажет практика.

_________________
Profile PM

eminent


Стаж: 5 лет 9 месяцев

Сообщений: 213

Откуда: Кривой Рог, Украина

Украина

Торрент-статистика

post 22-Фев-2015 23:00 (спустя 1 день 7 часов)

Quote


Нет возможности в 720 сделать? Был бы признателен.

_________________
Profile PM

K. Valera


Стаж: 4 года 7 месяцев

Сообщений: 779

Украина

Торрент-статистика

post 27-Фев-2015 16:42 (спустя 4 дня)

Quote


Конвертировать нет возможности и времени, а вот вторую серию этого сериала удалось записать. Но выложу его лишь послезавтра.

_________________
webmoney: R102437980674, U865336828210, Bitcoin: 1C5RGE4438bq3VfVUEfcw63rmYrb6Sgr29. Файлы не конвертирую. Готов реанимировать почти все свои раздачи.
Profile PM
Ответить на тему