Чемпионат Аргентины 2015 / 2-й тур / Обзор матчей / Resúmenes Fútbol Argentino / Canal+ Fútbol HD [26.02.2015, 1080i, H.264, ES, HDTV, SAT]

Ответить на тему

Автор Сообщение

K. Valera


Стаж: 4 года 7 месяцев

Сообщений: 781

Украина

Торрент-статистика

post 01-Мар-2015 11:10

Quote


Чемпионат Аргентины 2015 / Обзор матчей 2-го тура / Resúmenes Fútbol Argentino / Canal+ Fútbol HD

Год выпуска: 26.02.2015
Вид спорта: Футбол
Релиз: rgfootball.net
Aвтор рипа: K. Valera
Продолжительность: 00:47:49
Канал:
Комментарий: Профессиональный
Язык комментариев: Испанский
Качество: HDTV / Формат: *.ts / Видео Кодек: AVC / Аудио Кодек: AC-3
Видео: 1920x1080 (16/9), 25,000 fps, 12,1 Мбит/сек
Аудио 1: 192 Kbps, 48 KHz, Dolby AC-3 2.0 channels Испанский
Аудио 2: 192 Kbps, 48 KHz, Dolby AC-3 2.0 channels Испанский
Запись видео: Openbox SX6 HD
Программа корректировки видео: Cypheros TS-Doctor ver. 1.2.22

Код:

General
ID                             : 1056 (0x420)
Complete name                  : E:\Чемпионат Аргентины 2015 Обзор матчей 2-го тура Canal+ Fútbol HD\HIGHLIGHTS LIGA ARGENTINA-02.ts
Format                         : MPEG-TS
File size                      : 4.05 GiB
Duration                       : 47mn 49s
Overall bit rate mode          : Variable
Overall bit rate               : 12.1 Mbps

Video
ID                             : 161 (0xA1)
Menu ID                        : 29960 (0x7508)
Format                         : AVC
Format/Info                    : Advanced Video Codec
Format profile                 : High@L4.0
Format settings, CABAC         : Yes
Format settings, ReFrames      : 4 frames
Codec ID                       : 27
Duration                       : 47mn 48s
Bit rate                       : 11.1 Mbps
Width                          : 1 920 pixels
Height                         : 1 080 pixels
Display aspect ratio           : 16:9
Frame rate                     : 25.000 fps
Color space                    : YUV
Chroma subsampling             : 4:2:0
Bit depth                      : 8 bits
Scan type                      : MBAFF
Scan order                     : Top Field First
Bits/(Pixel*Frame)             : 0.215
Stream size                    : 3.72 GiB (92%)
Encryption                     : Nagravision
Color primaries                : BT.709
Transfer characteristics       : BT.709
Matrix coefficients            : BT.709
Color range                    : Limited

Audio #1
ID                             : 86 (0x56)
Menu ID                        : 29960 (0x7508)
Format                         : AC-3
Format/Info                    : Audio Coding 3
Mode extension                 : CM (complete main)
Format settings, Endianness    : Big
Codec ID                       : 6
Duration                       : 47mn 49s
Bit rate mode                  : Constant
Bit rate                       : 192 Kbps
Channel(s)                     : 2 channels
Channel positions              : Front: L R
Sampling rate                  : 48.0 KHz
Bit depth                      : 16 bits
Compression mode               : Lossy
Delay relative to video        : -842ms
Stream size                    : 65.7 MiB (2%)
Language                       : Spanish
Encryption                     : Nagravision

Audio #2
ID                             : 87 (0x57)
Menu ID                        : 29960 (0x7508)
Format                         : AC-3
Format/Info                    : Audio Coding 3
Mode extension                 : CM (complete main)
Format settings, Endianness    : Big
Codec ID                       : 6
Duration                       : 47mn 49s
Bit rate mode                  : Constant
Bit rate                       : 192 Kbps
Channel(s)                     : 2 channels
Channel positions              : Front: L R
Sampling rate                  : 48.0 KHz
Bit depth                      : 16 bits
Compression mode               : Lossy
Delay relative to video        : -800ms
Stream size                    : 65.7 MiB (2%)
Language                       : qaa
Encryption                     : Nagravision

_________________
webmoney: R102437980674, U865336828210, Bitcoin: 1C5RGE4438bq3VfVUEfcw63rmYrb6Sgr29. Файлы не конвертирую. Готов реанимировать почти все свои раздачи.


Последний раз редактировалось: K. Valera (2015-03-09 18:51), всего редактировалось 1 раз
Profile PM

Sandro_Mazzola


Стаж: 2 года 10 месяцев

Сообщений: 208

Британские Виргинские острова

Торрент-статистика

post 01-Мар-2015 12:38 (спустя 1 час 27 минут)

Quote


спасибо за данный обзор/раздачу! но у меня вопрос а чемпионат бразилии есть в таком жэ качестве???
Profile PM

K. Valera


Стаж: 4 года 7 месяцев

Сообщений: 781

Украина

Торрент-статистика

post 01-Мар-2015 13:52 (спустя 1 час 13 минут)

Quote


Попадалась трансляция Footbrazil вроде называется. Вчера была, но я её не писал. Там про Сантос рассказывали. Ещё Fiebre Maldini есть передача. Заявлено что "... программа национального и международного футбола". Часто попадается, но я её толком не смотрел.

_________________
webmoney: R102437980674, U865336828210, Bitcoin: 1C5RGE4438bq3VfVUEfcw63rmYrb6Sgr29. Файлы не конвертирую. Готов реанимировать почти все свои раздачи.
Profile PM

Sandro_Mazzola


Стаж: 2 года 10 месяцев

Сообщений: 208

Британские Виргинские острова

Торрент-статистика

post 01-Мар-2015 14:31 (спустя 39 минут)

Quote


лично мне интерестны обзоры с голами в 1080 качестве.. такие обзоры смогу долго сидировать
Profile PM

K. Valera


Стаж: 4 года 7 месяцев

Сообщений: 781

Украина

Торрент-статистика

post 01-Мар-2015 14:40 (спустя 9 минут)

Quote


Footbrazil Emisión 6 будет в ночь с 5-го на 6-ё марта. Постараюсь записать.


_________________
webmoney: R102437980674, U865336828210, Bitcoin: 1C5RGE4438bq3VfVUEfcw63rmYrb6Sgr29. Файлы не конвертирую. Готов реанимировать почти все свои раздачи.
Profile PM

Sandro_Mazzola


Стаж: 2 года 10 месяцев

Сообщений: 208

Британские Виргинские острова

Торрент-статистика

post 01-Мар-2015 14:56 (спустя 15 минут)

Quote


благодарчик.хотелось бы их голы смотреть
Profile PM

zoomerxvii


Стаж: 4 года 2 месяца

Сообщений: 37

Торрент-статистика

post 03-Мар-2015 00:51 (спустя 1 день 9 часов)

Quote


Класс! Спасибо!
Profile PM
Ответить на тему