Чемпионат Бразилии 2015 (Лига Паулиста) / 7-й тур / FOOTBRAZIL 2015 Emision 7 /Обзор матчей / Canal+ Liga de Campeones HD [05.03.2015, 1080i, H.264, ES, EN, HDTV, SAT]

Ответить на тему

Автор Сообщение

K. Valera


Стаж: 4 года 7 месяцев

Сообщений: 781

Украина

Торрент-статистика

post 07-Мар-2015 16:42

Quote


Чемпионат Бразилии 2015 / 7-й тур / FOOTBRAZIL 2015 Emision 7 /Обзор матчей / Canal+ Liga de Campeones HD

Год выпуска: 05.03.2015
Вид спорта: Футбол
Релиз: rgfootball.net
Aвтор рипа: K. Valera
Продолжительность: 00:28:23
Канал:
Комментарий: Профессиональный
Язык комментариев: Испанский, Английский
Качество: HDTV / Формат: *.ts / Видео Кодек: AVC / Аудио Кодек: MPEG, AC-3
Видео: 1920x1080 (16/9), 25,000 fps, 10 Мбит/сек
Аудио 1: 384 Kbps, 48 KHz, Dolby AC-3 2.0 channels Испанский
Аудио 2: 192 Kbps, 48 KHz, Dolby AC-3 2.0 channels Английский
Аудио 3: 160 Kbps, 48 KHz, MPEG mp2 1.0 channels, (интершум)
Запись видео: Openbox SX6 HD
Программа корректировки видео: Cypheros TS-Doctor ver. 1.2.22

Код:

General
ID                             : 1004 (0x3EC)
Complete name                  : E:\FOOTBRAZIL 2015 Emision 7.ts
Format                         : MPEG-TS
File size                      : 1.98 GiB
Duration                       : 28mn 21s
Overall bit rate mode          : Variable
Overall bit rate               : 10.0 Mbps

Video
ID                             : 160 (0xA0)
Menu ID                        : 30900 (0x78B4)
Format                         : AVC
Format/Info                    : Advanced Video Codec
Format profile                 : High@L4.0
Format settings, CABAC         : Yes
Format settings, ReFrames      : 4 frames
Format settings, GOP           : M=4, N=24
Codec ID                       : 27
Duration                       : 28mn 22s
Bit rate                       : 8 771 Kbps
Width                          : 1 920 pixels
Height                         : 1 080 pixels
Display aspect ratio           : 16:9
Frame rate                     : 25.000 fps
Color space                    : YUV
Chroma subsampling             : 4:2:0
Bit depth                      : 8 bits
Scan type                      : Interlaced
Scan order                     : Top Field First
Bits/(Pixel*Frame)             : 0.169
Stream size                    : 1.74 GiB (88%)
Encryption                     : Nagravision
Color primaries                : BT.709
Transfer characteristics       : BT.709
Matrix coefficients            : BT.709
Color range                    : Limited

Audio #1
ID                             : 80 (0x50)
Menu ID                        : 30900 (0x78B4)
Format                         : AC-3
Format/Info                    : Audio Coding 3
Mode extension                 : CM (complete main)
Format settings, Endianness    : Big
Codec ID                       : 6
Duration                       : 28mn 21s
Bit rate mode                  : Constant
Bit rate                       : 384 Kbps
Channel(s)                     : 2 channels
Channel positions              : Front: L R
Sampling rate                  : 48.0 KHz
Bit depth                      : 16 bits
Compression mode               : Lossy
Delay relative to video        : -554ms
Stream size                    : 77.9 MiB (4%)
Language                       : Spanish
Language, more info            : Clean effects
Encryption                     : Nagravision

Audio #2
ID                             : 81 (0x51)
Menu ID                        : 30900 (0x78B4)
Format                         : AC-3
Format/Info                    : Audio Coding 3
Mode extension                 : CM (complete main)
Format settings, Endianness    : Big
Codec ID                       : 6
Duration                       : 28mn 21s
Bit rate mode                  : Constant
Bit rate                       : 192 Kbps
Channel(s)                     : 2 channels
Channel positions              : Front: L R
Sampling rate                  : 48.0 KHz
Bit depth                      : 16 bits
Compression mode               : Lossy
Delay relative to video        : -554ms
Stream size                    : 39.0 MiB (2%)
Language                       : qaa
Language, more info            : Clean effects
Encryption                     : Nagravision

Audio #3
ID                             : 82 (0x52)
Menu ID                        : 30900 (0x78B4)
Format                         : MPEG Audio
Format version                 : Version 1
Format profile                 : Layer 2
Codec ID                       : 4
Duration                       : 28mn 21s
Bit rate mode                  : Constant
Bit rate                       : 160 Kbps
Channel(s)                     : 1 channel
Sampling rate                  : 48.0 KHz
Compression mode               : Lossy
Delay relative to video        : -630ms
Stream size                    : 32.5 MiB (2%)
Encryption                     : Nagravision

_________________
webmoney: R102437980674, U865336828210, Bitcoin: 1C5RGE4438bq3VfVUEfcw63rmYrb6Sgr29. Файлы не конвертирую. Готов реанимировать почти все свои раздачи.
Profile PM
Ответить на тему