Чемпионат Турции 2014-15 / 25-й тур / Her Şeye Değer. Futbol HD / Обзор матчей тура / TRT HD [23.03.2015, 1080i, H.264, TUR, AC-3 5.1, HDTV, SAT]

Ответить на тему

Автор Сообщение

K. Valera


Стаж: 4 года 7 месяцев

Сообщений: 778

Украина

Торрент-статистика

post 25-Мар-2015 20:02

Quote


Чемпионат Турции 2014-15 / 25-й тур / Her Şeye Değer. Futbol HD / Обзор матчей тура / TRT HD

Год выпуска: 23.03.2015
Вид спорта: Футбол
Релиз: rgfootball.net
Aвтор рипа: K. Valera
Продолжительность: 00:57:00
Канал:
Комментарий: Профессиональный
Язык комментариев: Турецкий
Качество: HDTV / Формат: *.ts / Видео Кодек: AVC / Аудио Кодек: MPEG, AC-3
Видео: 1920x1080 (16/9), 25,000 fps, 8.9 Мбит/сек
Аудио 1: 384 Kbps, 48 KHz, Dolby AC-3 5.1 channels Турецкий
Аудио 2: 192 Kbps, 48 KHz, MPEG mp2 2.0 channels, Турецкий
Запись видео: Openbox SX6 HD
Программа корректировки видео: Cypheros TS-Doctor ver. 1.2.22

Код:

General
ID                             : 20700 (0x50DC)
Complete name                  : F:\FUTBOL HD 25 round 23.03.2015.ts
Format                         : MPEG-TS
File size                      : 3.54 GiB
Duration                       : 57mn 0s
Overall bit rate mode          : Variable
Overall bit rate               : 8 900 Kbps

Video
ID                             : 2432 (0x980)
Menu ID                        : 8108 (0x1FAC)
Format                         : AVC
Format/Info                    : Advanced Video Codec
Format profile                 : High@L4.0
Format settings, CABAC         : Yes
Format settings, ReFrames      : 4 frames
Codec ID                       : 27
Duration                       : 56mn 59s
Bit rate                       : 7 878 Kbps
Width                          : 1 920 pixels
Height                         : 1 080 pixels
Display aspect ratio           : 16:9
Frame rate                     : 25.000 fps
Color space                    : YUV
Chroma subsampling             : 4:2:0
Bit depth                      : 8 bits
Scan type                      : MBAFF
Scan order                     : Top Field First
Bits/(Pixel*Frame)             : 0.152
Stream size                    : 3.14 GiB (88%)

Audio #1
ID                             : 3434 (0xD6A)
Menu ID                        : 8108 (0x1FAC)
Format                         : AC-3
Format/Info                    : Audio Coding 3
Mode extension                 : CM (complete main)
Format settings, Endianness    : Big
Codec ID                       : 6
Duration                       : 57mn 0s
Bit rate mode                  : Constant
Bit rate                       : 384 Kbps
Channel(s)                     : 6 channels
Channel positions              : Front: L C R, Side: L R, LFE
Sampling rate                  : 48.0 KHz
Bit depth                      : 16 bits
Compression mode               : Lossy
Delay relative to video        : -1s 108ms
Stream size                    : 157 MiB (4%)
Language                       : Turkish

Audio #2
ID                             : 3435 (0xD6B)
Menu ID                        : 8108 (0x1FAC)
Format                         : MPEG Audio
Format version                 : Version 1
Format profile                 : Layer 2
Mode                           : Joint stereo
Mode extension                 : Intensity Stereo + MS Stereo
Codec ID                       : 3
Duration                       : 57mn 0s
Bit rate mode                  : Constant
Bit rate                       : 192 Kbps
Channel(s)                     : 2 channels
Sampling rate                  : 48.0 KHz
Compression mode               : Lossy
Delay relative to video        : -1s 55ms
Stream size                    : 78.3 MiB (2%)
Language                       : orj

_________________
webmoney: R102437980674, U865336828210, Bitcoin: 1C5RGE4438bq3VfVUEfcw63rmYrb6Sgr29. Файлы не конвертирую. Готов реанимировать почти все свои раздачи.
Profile PM

Lamin80


Стаж: 3 года 9 месяцев

Сообщений: 240

Откуда: Горловка Донецкая Народная Республика

Россия

Торрент-статистика

post 25-Мар-2015 20:57 (спустя 55 минут)

Quote


где Паулиста?
Profile PM

K. Valera


Стаж: 4 года 7 месяцев

Сообщений: 778

Украина

Торрент-статистика

post 25-Мар-2015 21:39 (спустя 41 минута)

Quote


Не нарывайся на рифму. ad
Сегодня будут транслировать и Бразилию и Аргентину, но я на работе, не смогу записать. Может завтра с повторов, если будет.

_________________
webmoney: R102437980674, U865336828210, Bitcoin: 1C5RGE4438bq3VfVUEfcw63rmYrb6Sgr29. Файлы не конвертирую. Готов реанимировать почти все свои раздачи.
Profile PM

thotspurs1


Стаж: 5 лет 11 месяцев

Сообщений: 63

Откуда: Херсон

Украина

Торрент-статистика

post 26-Мар-2015 00:11 (спустя 2 часа 31 минута)

Quote


А финала Кубка Бельгии Брюгге - Андерлехт у вас случайно нету?
Profile PM

K. Valera


Стаж: 4 года 7 месяцев

Сообщений: 778

Украина

Торрент-статистика

post 26-Мар-2015 01:28 (спустя 1 час 16 минут)

Quote


Пока не попадался.

_________________
webmoney: R102437980674, U865336828210, Bitcoin: 1C5RGE4438bq3VfVUEfcw63rmYrb6Sgr29. Файлы не конвертирую. Готов реанимировать почти все свои раздачи.
Profile PM
Ответить на тему