Чемпионат Турции 2014-15 / 26-й тур / Her Şeye Değer. Futbol HD / Обзор матчей тура / TRT HD [07.04.2015, 1080i, H.264, TUR, AC-3 5.1, HDTV, SAT]

Ответить на тему

Автор Сообщение

K. Valera


Стаж: 4 года 7 месяцев

Сообщений: 781

Украина

Торрент-статистика

post 07-Апр-2015 19:50

Quote


Чемпионат Турции 2014-15 / 26-й тур / Her Şeye Değer. Futbol HD / Обзор матчей тура / TRT HD

Год выпуска: 07.04.2015
Вид спорта: Футбол
Релиз: rgfootball.net
Aвтор рипа: K. Valera
Продолжительность: 00:54:13
Канал:
Комментарий: Профессиональный
Язык комментариев: Турецкий
Качество: HDTV / Формат: *.ts / Видео Кодек: AVC / Аудио Кодек: MPEG, AC-3
Видео: 1920x1080 (16/9), 25,000 fps, 8.3 Мбит/сек
Аудио 1: 384 Kbps, 48 KHz, Dolby AC-3 5.1 channels Турецкий
Аудио 2: 192 Kbps, 48 KHz, MPEG mp2 2.0 channels, Турецкий
Запись видео: Openbox SX6 HD
Программа корректировки видео: Cypheros TS-Doctor ver. 1.2.22

Код:

General
ID                             : 20700 (0x50DC)
Complete name                  : D:\Відео\FUTBOL HD 26 round 07.04.2015.ts
Format                         : MPEG-TS
File size                      : 3.15 GiB
Duration                       : 54mn 12s
Overall bit rate mode          : Variable
Overall bit rate               : 8 315 Kbps

Video
ID                             : 2432 (0x980)
Menu ID                        : 8108 (0x1FAC)
Format                         : AVC
Format/Info                    : Advanced Video Codec
Format profile                 : High@L4.0
Format settings, CABAC         : Yes
Format settings, ReFrames      : 4 frames
Codec ID                       : 27
Duration                       : 54mn 12s
Bit rate                       : 7 322 Kbps
Width                          : 1 920 pixels
Height                         : 1 080 pixels
Display aspect ratio           : 16:9
Frame rate                     : 25.000 fps
Color space                    : YUV
Chroma subsampling             : 4:2:0
Bit depth                      : 8 bits
Scan type                      : MBAFF
Scan order                     : Top Field First
Bits/(Pixel*Frame)             : 0.141
Stream size                    : 2.77 GiB (88%)

Audio #1
ID                             : 3434 (0xD6A)
Menu ID                        : 8108 (0x1FAC)
Format                         : AC-3
Format/Info                    : Audio Coding 3
Mode extension                 : CM (complete main)
Format settings, Endianness    : Big
Codec ID                       : 6
Duration                       : 54mn 12s
Bit rate mode                  : Constant
Bit rate                       : 384 Kbps
Channel(s)                     : 6 channels
Channel positions              : Front: L C R, Side: L R, LFE
Sampling rate                  : 48.0 KHz
Bit depth                      : 16 bits
Compression mode               : Lossy
Delay relative to video        : -1s 112ms
Stream size                    : 149 MiB (5%)
Language                       : Turkish

Audio #2
ID                             : 3435 (0xD6B)
Menu ID                        : 8108 (0x1FAC)
Format                         : MPEG Audio
Format version                 : Version 1
Format profile                 : Layer 2
Mode                           : Joint stereo
Mode extension                 : Intensity Stereo + MS Stereo
Codec ID                       : 3
Duration                       : 54mn 12s
Bit rate mode                  : Constant
Bit rate                       : 192 Kbps
Channel(s)                     : 2 channels
Sampling rate                  : 48.0 KHz
Compression mode               : Lossy
Delay relative to video        : -1s 95ms
Stream size                    : 74.5 MiB (2%)
Language                       : orj

_________________
webmoney: R102437980674, U865336828210, Bitcoin: 1C5RGE4438bq3VfVUEfcw63rmYrb6Sgr29. Файлы не конвертирую. Готов реанимировать почти все свои раздачи.


Последний раз редактировалось: K. Valera (2015-04-13 15:54), всего редактировалось 2 раз(а)
Profile PM

Chameleon


Стаж: 6 лет

Сообщений: 3701

Откуда: Tyumen

Россия

Торрент-статистика

post 07-Апр-2015 22:34 (спустя 2 часа 44 минуты)

Quote


Чемпионат Турции 2014-15 / 26-й тур / Her Şeye Değer. Futbol HD / Обзор матчей тура / TRT HD [07.04.2015, HD, 720p, H264, TUR, SAT]

_________________
Насчет матчей чемпионата Аргентины, Бразилии, Южной Кореи и других лиг пишите в ЛС.
Profile PM
Ответить на тему