Чемпионат Турции 2014-15 / 28-й тур / Her Şeye Değer. Futbol HD / Обзор матчей тура / TRT HD [27.04.2015, 1080i, H.264, TUR, AC-3 5.1, HDTV, SAT]

Ответить на тему

Автор Сообщение

K. Valera


Стаж: 4 года 7 месяцев

Сообщений: 781

Украина

Торрент-статистика

post 29-Апр-2015 11:05

Quote


Чемпионат Турции 2014-15 / 28-й тур / Her Şeye Değer. Futbol HD / Обзор матчей тура / TRT HD

Год выпуска: 27.04.2015
Вид спорта: Футбол
Релиз: rgfootball.net
Aвтор рипа: K. Valera
Продолжительность: 00:58:36
Канал:
Комментарий: Профессиональный
Язык комментариев: Турецкий
Качество: HDTV / Формат: *.ts / Видео Кодек: AVC / Аудио Кодек: MPEG, AC-3
Видео: 1920x1080 (16/9), 25,000 fps, 7.7 Мбит/сек
Аудио 1: 384 Kbps, 48 KHz, Dolby AC-3 5.1 channels Турецкий
Аудио 2: 192 Kbps, 48 KHz, MPEG mp2 2.0 channels, Турецкий
Запись видео: Openbox SX6 HD
Программа корректировки видео: Cypheros TS-Doctor ver. 1.2.22

Код:

General
ID                             : 20700 (0x50DC)
Complete name                  : F:\FUTBOL HD 28 round 27.04.2015.ts.ts
Format                         : MPEG-TS
File size                      : 3.14 GiB
Duration                       : 58mn 36s
Overall bit rate mode          : Variable
Overall bit rate               : 7 676 Kbps

Video
ID                             : 2432 (0x980)
Menu ID                        : 8108 (0x1FAC)
Format                         : AVC
Format/Info                    : Advanced Video Codec
Format profile                 : High@L4.0
Format settings, CABAC         : Yes
Format settings, ReFrames      : 4 frames
Codec ID                       : 27
Duration                       : 58mn 35s
Bit rate                       : 6 715 Kbps
Width                          : 1 920 pixels
Height                         : 1 080 pixels
Display aspect ratio           : 16:9
Frame rate                     : 25.000 fps
Color space                    : YUV
Chroma subsampling             : 4:2:0
Bit depth                      : 8 bits
Scan type                      : MBAFF
Scan order                     : Top Field First
Bits/(Pixel*Frame)             : 0.130
Stream size                    : 2.75 GiB (87%)

Audio #1
ID                             : 3434 (0xD6A)
Menu ID                        : 8108 (0x1FAC)
Format                         : AC-3
Format/Info                    : Audio Coding 3
Mode extension                 : CM (complete main)
Format settings, Endianness    : Big
Codec ID                       : 6
Duration                       : 58mn 34s
Bit rate mode                  : Constant
Bit rate                       : 384 Kbps
Channel(s)                     : 6 channels
Channel positions              : Front: L C R, Side: L R, LFE
Sampling rate                  : 48.0 KHz
Bit depth                      : 16 bits
Compression mode               : Lossy
Delay relative to video        : 123ms
Stream size                    : 161 MiB (5%)
Language                       : Turkish

Audio #2
ID                             : 3435 (0xD6B)
Menu ID                        : 8108 (0x1FAC)
Format                         : MPEG Audio
Format version                 : Version 1
Format profile                 : Layer 2
Mode                           : Joint stereo
Mode extension                 : Intensity Stereo + MS Stereo
Codec ID                       : 3
Duration                       : 58mn 34s
Bit rate mode                  : Constant
Bit rate                       : 192 Kbps
Channel(s)                     : 2 channels
Sampling rate                  : 48.0 KHz
Compression mode               : Lossy
Delay relative to video        : 66ms
Stream size                    : 80.5 MiB (3%)
Language                       : orj

_________________
webmoney: R102437980674, U865336828210, Bitcoin: 1C5RGE4438bq3VfVUEfcw63rmYrb6Sgr29. Файлы не конвертирую. Готов реанимировать почти все свои раздачи.
Profile PM

K. Valera


Стаж: 4 года 7 месяцев

Сообщений: 781

Украина

Торрент-статистика

post 12-Май-2015 19:50 (спустя 13 дней)

Quote


Такое счастье надо?


Обзор Турции и Европы. Писал ночью по таймеру, а у них как всегда с программой несовпадение, минут 6 в конце обрезало (несмотря на мои зазоры). Передача на 3 часа, размером около 5-ти гектаров. Думайте до конца дня, собираюсь удалять файлы, чтобы зря место не занимали. bt

_________________
webmoney: R102437980674, U865336828210, Bitcoin: 1C5RGE4438bq3VfVUEfcw63rmYrb6Sgr29. Файлы не конвертирую. Готов реанимировать почти все свои раздачи.
Profile PM

el1ven


Стаж: 5 лет 9 месяцев

Сообщений: 52

Албания

Торрент-статистика

post 12-Май-2015 21:43 (спустя 1 час 52 минуты)

Quote


Ну Турция точно нужна, остальное - по описанию не очень понятно что там. Можно раздать, я скачаю, потом буду какое-то время сидировать.
Profile PM

K. Valera


Стаж: 4 года 7 месяцев

Сообщений: 781

Украина

Торрент-статистика

post 12-Май-2015 21:50 (спустя 7 минут)

Quote


Там и болтовни хватает. Еженедельный обзор Турецкой лиги я пропустил, повторы тоже. Осталось только это. Сейчас раздам.

_________________
webmoney: R102437980674, U865336828210, Bitcoin: 1C5RGE4438bq3VfVUEfcw63rmYrb6Sgr29. Файлы не конвертирую. Готов реанимировать почти все свои раздачи.
Profile PM
Ответить на тему