Чемпионат Турции 2014-15 / 32-й тур / Her Şeye Değer. Futbol HD / Обзор матчей тура / TRT HD [18.05.2015, 1080i, H.264, TUR, AC-3 5.1, HDTV, SAT]

Ответить на тему

Автор Сообщение

K. Valera


Стаж: 4 года 7 месяцев

Сообщений: 781

Украина

Торрент-статистика

post 19-Май-2015 16:30

Quote


Чемпионат Турции 2014-15 / 32-й тур / Her Şeye Değer. Futbol HD / Обзор матчей тура / TRT HD

Год выпуска: 18.05.2015
Вид спорта: Футбол
Релиз:
Aвтор рипа: K. Valera
Продолжительность: 00:53:54
Канал:
Комментарий: Профессиональный
Язык комментариев: Турецкий
Качество: HDTV / Формат: *.ts / Видео Кодек: AVC / Аудио Кодек: MPEG, AC-3
Видео: 1920x1080 (16/9), 25,000 fps, 9.3 Мбит/сек
Аудио 1: 384 Kbps, 48 KHz, Dolby AC-3 5.1 channels Турецкий
Аудио 2: 192 Kbps, 48 KHz, MPEG mp2 2.0 channels, Турецкий
Запись видео: Openbox SX6 HD
Программа корректировки видео: Cypheros TS-Doctor ver. 1.2.22

Код:

General
ID                             : 20700 (0x50DC)
Complete name                  : D:\111\FUTBOL HD 32 round 18.05.2015.ts
Format                         : MPEG-TS
File size                      : 3.50 GiB
Duration                       : 53mn 53s
Overall bit rate mode          : Variable
Overall bit rate               : 9 308 Kbps

Video
ID                             : 2432 (0x980)
Menu ID                        : 8108 (0x1FAC)
Format                         : AVC
Format/Info                    : Advanced Video Codec
Format profile                 : High@L4.0
Format settings, CABAC         : Yes
Format settings, ReFrames      : 4 frames
Codec ID                       : 27
Duration                       : 53mn 53s
Bit rate                       : 8 266 Kbps
Width                          : 1 920 pixels
Height                         : 1 080 pixels
Display aspect ratio           : 16:9
Frame rate                     : 25.000 fps
Color space                    : YUV
Chroma subsampling             : 4:2:0
Bit depth                      : 8 bits
Scan type                      : MBAFF
Scan order                     : Top Field First
Bits/(Pixel*Frame)             : 0.159
Stream size                    : 3.11 GiB (89%)

Audio #1
ID                             : 3434 (0xD6A)
Menu ID                        : 8108 (0x1FAC)
Format                         : AC-3
Format/Info                    : Audio Coding 3
Mode extension                 : CM (complete main)
Format settings, Endianness    : Big
Codec ID                       : 6
Duration                       : 53mn 53s
Bit rate mode                  : Constant
Bit rate                       : 384 Kbps
Channel(s)                     : 6 channels
Channel positions              : Front: L C R, Side: L R, LFE
Sampling rate                  : 48.0 KHz
Bit depth                      : 16 bits
Compression mode               : Lossy
Delay relative to video        : 62ms
Stream size                    : 148 MiB (4%)
Language                       : Turkish

Audio #2
ID                             : 3435 (0xD6B)
Menu ID                        : 8108 (0x1FAC)
Format                         : MPEG Audio
Format version                 : Version 1
Format profile                 : Layer 2
Mode                           : Joint stereo
Mode extension                 : Intensity Stereo + MS Stereo
Codec ID                       : 3
Duration                       : 53mn 53s
Bit rate mode                  : Constant
Bit rate                       : 192 Kbps
Channel(s)                     : 2 channels
Sampling rate                  : 48.0 KHz
Compression mode               : Lossy
Delay relative to video        : 36ms
Stream size                    : 74.0 MiB (2%)
Language                       : orj

_________________
webmoney: R102437980674, U865336828210, Bitcoin: 1C5RGE4438bq3VfVUEfcw63rmYrb6Sgr29. Файлы не конвертирую. Готов реанимировать почти все свои раздачи.
Profile PM

blic-klic


Стаж: 1 год 9 месяцев

Сообщений: 4

Торрент-статистика

post 29-Май-2015 13:28 (спустя 9 дней)

Quote


Спасибо большое! А сегодня не будет возможности выложить 33-й тур?
Profile PM

K. Valera


Стаж: 4 года 7 месяцев

Сообщений: 781

Украина

Торрент-статистика

post 30-Май-2015 10:01 (спустя 20 часов)

Quote


Не будет, я его не записывал.

_________________
webmoney: R102437980674, U865336828210, Bitcoin: 1C5RGE4438bq3VfVUEfcw63rmYrb6Sgr29. Файлы не конвертирую. Готов реанимировать почти все свои раздачи.
Profile PM
Ответить на тему