Чемпионат Бельгии 2014-15 / Жюпиле Про-лига / 40-й тур / Обзор тура / Digi Sport 1 HD [26.05.2015, 1080i, H.264, MPEG, HUN, HDTV, SAT]

Ответить на тему

Автор Сообщение

K. Valera


Стаж: 4 года 7 месяцев

Сообщений: 778

Украина

Торрент-статистика

post 27-Май-2015 11:38

Quote


Чемпионат Бельгии 2014-15 / Жюпиле Про-лига / 40-й тур / Обзор тура / Digi Sport 1 HD

Год выпуска: 26.05.2015
Вид спорта: Футбол
Релиз:
Aвтор рипа: K. Valera
Продолжительность: 00:25:19
Комментарий: Профессиональный
Язык комментариев: Венгерский
Канал:
Качество: HDTV / Формат: *.ts / Видео Кодек: AVC / Аудио Кодек: MPEG
Видео: 1920x1080 (16/9), 25,000 fps, 9.6 Мбит/сек
Аудио 1: 128 Kbps, 48 KHz, MPEG mp2 2.0 channels (Венгерский)
Запись видео: Openbox SX6 HD
Программа корректировки видео: Cypheros TS-Doctor ver. 1.2.22

Код:

General
ID                             : 13 (0xD)
Complete name                  : E:\Labdaragus Belgia Pro League 40 round 26.05.2015.ts
Format                         : MPEG-TS
File size                      : 1.70 GiB
Duration                       : 25mn 17s
Overall bit rate mode          : Variable
Overall bit rate               : 9 595 Kbps

Video
ID                             : 4076 (0xFEC)
Menu ID                        : 4020 (0xFB4)
Format                         : AVC
Format/Info                    : Advanced Video Codec
Format version                 : Version 2
Format profile                 : Main@L4.0
Format settings, CABAC         : Yes
Format settings, ReFrames      : 4 frames
Codec ID                       : 27
Duration                       : 25mn 18s
Bit rate                       : 8 992 Kbps
Maximum bit rate               : 44.0 Kbps
Width                          : 1 920 pixels
Height                         : 1 080 pixels
Display aspect ratio           : 16:9
Frame rate                     : 25.000 fps
Color space                    : YUV
Chroma subsampling             : 4:2:0
Bit depth                      : 8 bits
Scan type                      : Interlaced
Scan order                     : Top Field First
Bits/(Pixel*Frame)             : 0.173
Stream size                    : 1.59 GiB (94%)
Color primaries                : BT.709
Transfer characteristics       : BT.709
Matrix coefficients            : BT.709
Color range                    : Limited

Audio
ID                             : 4100 (0x1004)
Menu ID                        : 4020 (0xFB4)
Format                         : MPEG Audio
Format version                 : Version 1
Format profile                 : Layer 2
Codec ID                       : 4
Duration                       : 25mn 18s
Bit rate mode                  : Constant
Bit rate                       : 128 Kbps
Maximum bit rate               : 132 Kbps
Channel(s)                     : 2 channels
Sampling rate                  : 48.0 KHz
Compression mode               : Lossy
Delay relative to video        : 109ms
Stream size                    : 23.2 MiB (1%)
Language                       : Hungarian

Menu
ID                             : 4120 (0x1018)
Menu ID                        : 4020 (0xFB4)
Duration                       : 25mn 17s
List                           : 4076 (0xFEC) (AVC) / 4100 (0x1004) (MPEG Audio, Hungarian)
Language                       :  / Hungarian
Maximum bit rate               : 12162800

_________________
webmoney: R102437980674, U865336828210, Bitcoin: 1C5RGE4438bq3VfVUEfcw63rmYrb6Sgr29. Файлы не конвертирую. Готов реанимировать почти все свои раздачи.
Profile PM
Ответить на тему