Чемпионат Турции 2014-15 / 34-й тур / Turkse Super League / Обзор матчей тура / Sport 1 Select HD [03.06.2015, 1080i, H.264, DUT, MPEG, HDTV, SAT]

Ответить на тему

Автор Сообщение

K. Valera


Стаж: 4 года 7 месяцев

Сообщений: 781

Украина

Торрент-статистика

post 08-Июн-2015 12:55

Quote


Чемпионат Турции 2014-15 / 34-й тур / Turkse Super League / Обзор матчей тура / Sport 1 Select HD

Год выпуска: 03.06.2015
Вид спорта: Футбол
Релиз:
Aвтор рипа: K. Valera
Продолжительность: 00:20:53
Канал:
Комментарий: Профессиональный
Язык комментариев: Голландский
Качество: HDTV / Формат: *.ts / Видео Кодек: AVC / Аудио Кодек: MPEG
Видео: 1920x1080 (16/9), 25,000 fps, 5.5 Мбит/сек
Аудио: 192 Kbps, 48 KHz, MPEG mp2 2.0 channels, Dutch
Запись видео: Openbox SX6 HD
Программа корректировки видео: Cypheros TS-Doctor ver. 1.2.22

Код:

General
ID                             : 3222 (0xC96)
Complete name                  : F:\Turkse Super Lig Hoogtepunten.ts
Format                         : MPEG-TS
File size                      : 822 MiB
Duration                       : 20mn 52s
Overall bit rate mode          : Variable
Overall bit rate               : 5 502 Kbps

Video
ID                             : 522 (0x20A)
Menu ID                        : 20960 (0x51E0)
Format                         : AVC
Format/Info                    : Advanced Video Codec
Format profile                 : High@L4.0
Format settings, CABAC         : Yes
Format settings, ReFrames      : 3 frames
Codec ID                       : 27
Duration                       : 20mn 52s
Bit rate                       : 5 037 Kbps
Width                          : 1 920 pixels
Height                         : 1 080 pixels
Display aspect ratio           : 16:9
Frame rate                     : 25.000 fps
Standard                       : Component
Color space                    : YUV
Chroma subsampling             : 4:2:0
Bit depth                      : 8 bits
Scan type                      : Interlaced
Scan order                     : Top Field First
Bits/(Pixel*Frame)             : 0.097
Stream size                    : 752 MiB (91%)
Encryption                     : Seca Mediaguard 1/2
Color primaries                : BT.709
Transfer characteristics       : BT.709
Matrix coefficients            : BT.709
Color range                    : Limited

Audio
ID                             : 100 (0x64)
Menu ID                        : 20960 (0x51E0)
Format                         : MPEG Audio
Format version                 : Version 1
Format profile                 : Layer 2
Codec ID                       : 4
Duration                       : 20mn 52s
Bit rate mode                  : Constant
Bit rate                       : 192 Kbps
Channel(s)                     : 2 channels
Sampling rate                  : 48.0 KHz
Compression mode               : Lossy
Delay relative to video        : -588ms
Stream size                    : 28.7 MiB (3%)
Language                       : Dutch
Encryption                     : Seca Mediaguard 1/2

_________________
webmoney: R102437980674, U865336828210, Bitcoin: 1C5RGE4438bq3VfVUEfcw63rmYrb6Sgr29. Файлы не конвертирую. Готов реанимировать почти все свои раздачи.
Profile PM
Ответить на тему