Чемпионат Бразилии 2015 / Highlights Brasileirao 2015 Jornada 8 / Обзор 8-го тура / Canal+ Fútbol HD [26.06.2015, 1080i, H.264, ES, HDTV, SAT]

Ответить на тему

Автор Сообщение

K. Valera


Стаж: 4 года 7 месяцев

Сообщений: 781

Украина

Торрент-статистика

post 27-Июн-2015 10:37

Quote


Чемпионат Бразилии 2015 / Highlights Brasileirao 2015 Jornada 8 / Обзор 8-го тура / Canal+ Fútbol HD

Год выпуска: 26.05.2015
Вид спорта: Футбол
Релиз:
Aвтор рипа: K. Valera
Продолжительность: 00:29:05
Канал:
Комментарий: Профессиональный
Язык комментариев: Испанский
Качество: HDTV / Формат: *.ts / Видео Кодек: AVC / Аудио Кодек: MPEG, AC-3
Видео: 1920x1080 (16/9), 25,000 fps, 7.8 Мбит/сек
Аудио 1: 192 Kbps, 48 KHz, Dolby AC-3 2.0 channels Испанский
Аудио 2: 192 Kbps, 48 KHz, Dolby AC-3 2.0 channels Испанский
Запись видео: Openbox SX6 HD
Программа корректировки видео: Cypheros TS-Doctor ver. 1.2.22

Код:

General
ID                             : 1056 (0x420)
Complete name                  : E:\Highlights Brasileirao 2015 Jornada 8.ts
Format                         : MPEG-TS
File size                      : 1.59 GiB
Duration                       : 29mn 4s
Overall bit rate mode          : Variable
Overall bit rate               : 7 816 Kbps

Video
ID                             : 161 (0xA1)
Menu ID                        : 29960 (0x7508)
Format                         : AVC
Format/Info                    : Advanced Video Codec
Format profile                 : High@L4.0
Format settings, CABAC         : Yes
Format settings, ReFrames      : 4 frames
Codec ID                       : 27
Duration                       : 29mn 3s
Bit rate                       : 7 041 Kbps
Width                          : 1 920 pixels
Height                         : 1 080 pixels
Display aspect ratio           : 16:9
Frame rate                     : 25.000 fps
Color space                    : YUV
Chroma subsampling             : 4:2:0
Bit depth                      : 8 bits
Scan type                      : MBAFF
Scan order                     : Top Field First
Bits/(Pixel*Frame)             : 0.136
Stream size                    : 1.43 GiB (90%)
Encryption                     : Nagravision
Color primaries                : BT.709
Transfer characteristics       : BT.709
Matrix coefficients            : BT.709
Color range                    : Limited

Audio #1
ID                             : 86 (0x56)
Menu ID                        : 29960 (0x7508)
Format                         : AC-3
Format/Info                    : Audio Coding 3
Mode extension                 : CM (complete main)
Format settings, Endianness    : Big
Codec ID                       : 6
Duration                       : 29mn 4s
Bit rate mode                  : Constant
Bit rate                       : 192 Kbps
Channel(s)                     : 2 channels
Channel positions              : Front: L R
Sampling rate                  : 48.0 KHz
Bit depth                      : 16 bits
Compression mode               : Lossy
Delay relative to video        : -961ms
Stream size                    : 39.9 MiB (2%)
Language                       : Spanish
Encryption                     : Nagravision

Audio #2
ID                             : 87 (0x57)
Menu ID                        : 29960 (0x7508)
Format                         : AC-3
Format/Info                    : Audio Coding 3
Mode extension                 : CM (complete main)
Format settings, Endianness    : Big
Codec ID                       : 6
Duration                       : 29mn 4s
Bit rate mode                  : Constant
Bit rate                       : 192 Kbps
Channel(s)                     : 2 channels
Channel positions              : Front: L R
Sampling rate                  : 48.0 KHz
Bit depth                      : 16 bits
Compression mode               : Lossy
Delay relative to video        : -940ms
Stream size                    : 39.9 MiB (2%)
Language                       : qaa
Encryption                     : Nagravision

_________________
webmoney: R102437980674, U865336828210, Bitcoin: 1C5RGE4438bq3VfVUEfcw63rmYrb6Sgr29. Файлы не конвертирую. Готов реанимировать почти все свои раздачи.
Profile PM
Ответить на тему