Чемпионат Норвегии 2014-15 / Tippeligaen / Fotballkveld 15 runde / Обзор 15-го тура / TV2 Zebra HD [05.07.2015, 720p, 50 fps, H.264, MPEG, NOR, HDTV, SAT]

Ответить на тему

Автор Сообщение

K. Valera


Стаж: 4 года 7 месяцев

Сообщений: 781

Украина

Торрент-статистика

post 06-Июл-2015 16:30

Quote


Чемпионат Норвегии 2014-15 / Tippeligaen / Fotballkveld 15 runde / Обзор 15-го тура / TV2 Zebra HD

Год выпуска: 05.07.2015
Вид спорта: Футбол
Релиз:
Aвтор рипа: K. Valera
Продолжительность: 00:45:03
Канал:
Комментарий: Профессиональный
Язык комментариев: Норвежский
Качество: HDTV / Формат: *.ts / Видео Кодек: AVC / Аудио Кодек: MPEG
Видео: 1280x720 (16/9), 50,000 fps, 8,9 Мбит/сек
Аудио: 256 Kbps, 48 KHz, MPEG, mp2 2.0 channels
Запись видео: Openbox SX6 HD
Программа корректировки видео: Cypheros TS-Doctor ver. 1.2.22

Код:

General
ID                             : 68 (0x44)
Complete name                  : E:\Fotballkveld 15 runde 05.07.2015.ts
Format                         : MPEG-TS
File size                      : 2.81 GiB
Duration                       : 45mn 2s
Overall bit rate mode          : Variable
Overall bit rate               : 8 921 Kbps

Video
ID                             : 1291 (0x50B)
Menu ID                        : 7065 (0x1B99)
Format                         : AVC
Format/Info                    : Advanced Video Codec
Format profile                 : High@L4.0
Format settings, CABAC         : Yes
Format settings, ReFrames      : 4 frames
Codec ID                       : 27
Duration                       : 45mn 2s
Bit rate                       : 8 222 Kbps
Width                          : 1 280 pixels
Height                         : 720 pixels
Display aspect ratio           : 16:9
Frame rate                     : 50.000 fps
Color space                    : YUV
Chroma subsampling             : 4:2:0
Bit depth                      : 8 bits
Scan type                      : Progressive
Bits/(Pixel*Frame)             : 0.178
Stream size                    : 2.59 GiB (92%)

Audio
ID                             : 3378 (0xD32)
Menu ID                        : 7065 (0x1B99)
Format                         : MPEG Audio
Format version                 : Version 1
Format profile                 : Layer 2
Mode                           : Joint stereo
Mode extension                 : Intensity Stereo + MS Stereo
Codec ID                       : 3
Duration                       : 45mn 2s
Bit rate mode                  : Constant
Bit rate                       : 256 Kbps
Channel(s)                     : 2 channels
Sampling rate                  : 48.0 KHz
Compression mode               : Lossy
Delay relative to video        : -963ms
Stream size                    : 82.5 MiB (3%)
Language                       : Norwegian

_________________
webmoney: R102437980674, U865336828210, Bitcoin: 1C5RGE4438bq3VfVUEfcw63rmYrb6Sgr29. Файлы не конвертирую. Готов реанимировать почти все свои раздачи.
Profile PM

ReverentManson


Стаж: 6 лет

Сообщений: 18

Торрент-статистика

post 02-Авг-2015 04:38 (спустя 26 дней)

Quote


а что, обзоров Норвегии больше не будет?, жаль
Profile PM
Ответить на тему