Чемпионат Бразилии 2015 / FOOTBRAZIL 2015 Emisión 25 / Обзор 13-го тура и превью / Canal+ Fútbol HD [16.07.2015, 1080i, H.264, ES/EN, HDTV, SAT]

Ответить на тему

Автор Сообщение

K. Valera


Стаж: 4 года 7 месяцев

Сообщений: 781

Украина

Торрент-статистика

post 18-Июл-2015 18:02

Quote


Чемпионат Бразилии 2015 / FOOTBRAZIL 2015 Emisión 25 / Обзор 13-го тура и превью / Canal+ Fútbol HD

Год выпуска: 16.07.2015
Вид спорта: Футбол
Релиз:
Aвтор рипа: K. Valera
Продолжительность: 00:29:55
Канал:
Комментарий: Профессиональный
Язык комментариев: Испанский, Английский
Качество: HDTV / Формат: *.ts / Видео Кодек: AVC / Аудио Кодек: MPEG, AC-3
Видео: 1920x1080 (16/9), 25,000 fps, 8 Мбит/сек
Аудио 1: 192 Kbps, 48 KHz, Dolby AC-3 2.0 channels Испанский
Аудио 2: 192 Kbps, 48 KHz, Dolby AC-3 2.0 channels Английский
Запись видео: Openbox SX6 HD
Программа корректировки видео: Cypheros TS-Doctor ver. 1.2.22

Код:

General
ID                             : 1056 (0x420)
Complete name                  : E:\FOOTBRAZIL Emisión 25.ts
Format                         : MPEG-TS
File size                      : 1.68 GiB
Duration                       : 29mn 54s
Overall bit rate mode          : Variable
Overall bit rate               : 8 061 Kbps

Video
ID                             : 161 (0xA1)
Menu ID                        : 29960 (0x7508)
Format                         : AVC
Format/Info                    : Advanced Video Codec
Format profile                 : High@L4.0
Format settings, CABAC         : Yes
Format settings, ReFrames      : 4 frames
Codec ID                       : 27
Duration                       : 29mn 55s
Bit rate                       : 7 275 Kbps
Width                          : 1 920 pixels
Height                         : 1 080 pixels
Display aspect ratio           : 16:9
Frame rate                     : 25.000 fps
Color space                    : YUV
Chroma subsampling             : 4:2:0
Bit depth                      : 8 bits
Scan type                      : MBAFF
Scan order                     : Top Field First
Bits/(Pixel*Frame)             : 0.140
Stream size                    : 1.52 GiB (90%)
Encryption                     : Nagravision
Color primaries                : BT.709
Transfer characteristics       : BT.709
Matrix coefficients            : BT.709
Color range                    : Limited

Audio #1
ID                             : 86 (0x56)
Menu ID                        : 29960 (0x7508)
Format                         : AC-3
Format/Info                    : Audio Coding 3
Mode extension                 : CM (complete main)
Format settings, Endianness    : Big
Codec ID                       : 6
Duration                       : 29mn 54s
Bit rate mode                  : Constant
Bit rate                       : 192 Kbps
Channel(s)                     : 2 channels
Channel positions              : Front: L R
Sampling rate                  : 48.0 KHz
Bit depth                      : 16 bits
Compression mode               : Lossy
Delay relative to video        : -505ms
Stream size                    : 41.1 MiB (2%)
Language                       : Spanish
Encryption                     : Nagravision

Audio #2
ID                             : 87 (0x57)
Menu ID                        : 29960 (0x7508)
Format                         : AC-3
Format/Info                    : Audio Coding 3
Mode extension                 : CM (complete main)
Format settings, Endianness    : Big
Codec ID                       : 6
Duration                       : 29mn 54s
Bit rate mode                  : Constant
Bit rate                       : 192 Kbps
Channel(s)                     : 2 channels
Channel positions              : Front: L R
Sampling rate                  : 48.0 KHz
Bit depth                      : 16 bits
Compression mode               : Lossy
Delay relative to video        : -484ms
Stream size                    : 41.1 MiB (2%)
Language                       : qaa
Language, more info            : Clean effects
Encryption                     : Nagravision

_________________
webmoney: R102437980674, U865336828210, Bitcoin: 1C5RGE4438bq3VfVUEfcw63rmYrb6Sgr29. Файлы не конвертирую. Готов реанимировать почти все свои раздачи.
Profile PM

Vile


Стаж: 3 года

Сообщений: 15

Россия

Торрент-статистика

post 19-Июл-2015 22:41 (спустя 1 день 4 часа)

Quote


Обзор 12го тура нигде не попадался? Не могу найти...
Profile PM

Lamin80


Стаж: 3 года 9 месяцев

Сообщений: 243

Откуда: Горловка Донецкая Народная Республика

Россия

Торрент-статистика

post 21-Июл-2015 00:50 (спустя 1 день 2 часа)

Quote


Vile это и есть обзор 12 и 13 - туров, латинасы поконченому делают свои обзоры
Profile PM

Vile


Стаж: 3 года

Сообщений: 15

Россия

Торрент-статистика

post 21-Июл-2015 10:04 (спустя 9 часов)

Quote


Lamin80, ясно. Спасибо. Я не посмотрел просто ещё сам обзор. Последний 10 тур смотрел обзор. Потом времени не было, думаю скачаю 11,12,13 сразу. 12 не мог найти, вот и паниковал.
Profile PM
Ответить на тему