Чемпионат Аргентины 2015 / 17-й тур / Обзор матчей / Resúmenes Fútbol Argentino / Canal+ HD [22.07.2015, 1080i, H.264, ES, HDTV, SAT]

Ответить на тему

Автор Сообщение

K. Valera


Стаж: 4 года 7 месяцев

Сообщений: 781

Украина

Торрент-статистика

post 23-Июл-2015 11:23

Quote


Чемпионат Аргентины 2015 / Обзор матчей 17-го тура / Resúmenes Fútbol Argentino / Canal+ Fútbol HD

Год выпуска: 22.07.2015
Вид спорта: Футбол
Релиз:
Aвтор рипа: K. Valera
Продолжительность: 00:50:48
Комментарий: Профессиональный
Язык комментариев: Испанский
Качество: HDTV / Формат: *.ts / Видео Кодек: AVC / Аудио Кодек: AC-3
Видео: 1440x1080 (16/9), 25,000 fps, 7,4 Мбит/сек
Аудио 1: 192 Kbps, 48 KHz, Dolby AC-3 2.0 channels Испанский
Аудио 2: 192 Kbps, 48 KHz, Dolby AC-3 2.0 channels Испанский
Запись видео: Openbox SX6 HD
Программа корректировки видео: Cypheros TS-Doctor ver. 1.2.22

Код:

General
ID                             : 1044 (0x414)
Complete name                  : D:\111\Highlights Liga Argentina. Torneo 1 division 2015 Jornada 17.ts
Format                         : MPEG-TS
File size                      : 2.64 GiB
Duration                       : 50mn 47s
Overall bit rate mode          : Variable
Overall bit rate               : 7 431 Kbps

Video
ID                             : 165 (0xA5)
Menu ID                        : 30860 (0x788C)
Format                         : AVC
Format/Info                    : Advanced Video Codec
Format profile                 : High@L4
Format settings, CABAC         : Yes
Format settings, ReFrames      : 4 frames
Codec ID                       : 27
Duration                       : 50mn 48s
Bit rate                       : 6 676 Kbps
Width                          : 1 440 pixels
Height                         : 1 080 pixels
Display aspect ratio           : 16:9
Frame rate                     : 25.000 fps
Color space                    : YUV
Chroma subsampling             : 4:2:0
Bit depth                      : 8 bits
Scan type                      : MBAFF
Scan order                     : Top Field First
Bits/(Pixel*Frame)             : 0.172
Stream size                    : 2.37 GiB (90%)
Encryption                     : Nagravision
Color range                    : Limited
Color primaries                : BT.709
Transfer characteristics       : BT.709
Matrix coefficients            : BT.709

Audio #1
ID                             : 110 (0x6E)
Menu ID                        : 30860 (0x788C)
Format                         : AC-3
Format/Info                    : Audio Coding 3
Mode extension                 : CM (complete main)
Format settings, Endianness    : Big
Codec ID                       : 6
Duration                       : 50mn 46s
Bit rate mode                  : Constant
Bit rate                       : 192 Kbps
Channel(s)                     : 2 channels
Channel positions              : Front: L R
Sampling rate                  : 48.0 KHz
Bit depth                      : 16 bits
Compression mode               : Lossy
Delay relative to video        : 25ms
Stream size                    : 69.7 MiB (3%)
Language                       : Spanish
Language, more info            : Clean effects
Encryption                     : Nagravision

Audio #2
ID                             : 111 (0x6F)
Menu ID                        : 30860 (0x788C)
Format                         : AC-3
Format/Info                    : Audio Coding 3
Mode extension                 : CM (complete main)
Format settings, Endianness    : Big
Codec ID                       : 6
Duration                       : 50mn 46s
Bit rate mode                  : Constant
Bit rate                       : 192 Kbps
Channel(s)                     : 2 channels
Channel positions              : Front: L R
Sampling rate                  : 48.0 KHz
Bit depth                      : 16 bits
Compression mode               : Lossy
Delay relative to video        : 11ms
Stream size                    : 69.7 MiB (3%)
Language                       : qaa
Encryption                     : Nagravision

_________________
webmoney: R102437980674, U865336828210, Bitcoin: 1C5RGE4438bq3VfVUEfcw63rmYrb6Sgr29. Файлы не конвертирую. Готов реанимировать почти все свои раздачи.
Profile PM

K. Valera


Стаж: 4 года 7 месяцев

Сообщений: 781

Украина

Торрент-статистика

post 23-Июл-2015 22:15 (спустя 10 часов)

Quote


В середине записи аппаратура зависла, пришлось перегружать.

_________________
webmoney: R102437980674, U865336828210, Bitcoin: 1C5RGE4438bq3VfVUEfcw63rmYrb6Sgr29. Файлы не конвертирую. Готов реанимировать почти все свои раздачи.
Profile PM
Ответить на тему