Чемпионат Шотландии 2015-16 / 1-й тур / Обзор матчей Premiership / Eleven F HD [07.08.2015, H.264, 1080, 25 fps, BEL/FR, HDTV]

Ответить на тему

Автор Сообщение

K. Valera


Стаж: 4 года 7 месяцев

Сообщений: 781

Украина

Торрент-статистика

post 07-Авг-2015 18:18

Quote


Чемпионат Шотландии 2015-16 / 1-й тур / Обзор матчей Premiership / Eleven F HD

Год выпуска: 07.08.2015
Вид спорта: Футбол
Релиз:
Aвтор рипа: K. Valera
Продолжительность: 00:26:56
Комментарий: Профессиональный
Язык комментариев: Бельгийский, Французский
Канал:
Качество: HDTV / Формат: *.ts / Видео Кодек: AVC / Аудио Кодек: MPEG Audio
Видео: 1920x1080 (16/9), 25,000 fps, 6.6 Мбит/сек
Аудио: 192 Kbps, 48 KHz, MPEG mp2 2.0 channels (Бельгийский)
Аудио: 192 Kbps, 48 KHz, MPEG mp2 2.0 channels (Французский)
Запись видео: Openbox SX6 HD
Программа корректировки видео: Cypheros TS-Doctor ver. 1.2.22

Код:

General
ID                             : 5000 (0x1388)
Complete name                  : D:\111\Scottish Premier League 1st round.ts
Format                         : MPEG-TS
File size                      : 1.25 GiB
Duration                       : 26mn 56s
Overall bit rate mode          : Variable
Overall bit rate               : 6 628 Kbps

Video
ID                             : 5001 (0x1389)
Menu ID                        : 13788 (0x35DC)
Format                         : AVC
Format/Info                    : Advanced Video Codec
Format profile                 : High@L4
Format settings, CABAC         : Yes
Format settings, ReFrames      : 4 frames
Format settings, GOP           : M=4, N=13
Codec ID                       : 27
Duration                       : 26mn 56s
Bit rate                       : 5 913 Kbps
Width                          : 1 920 pixels
Height                         : 1 080 pixels
Display aspect ratio           : 16:9
Frame rate                     : 25.000 fps
Color space                    : YUV
Chroma subsampling             : 4:2:0
Bit depth                      : 8 bits
Scan type                      : Interlaced
Scan order                     : Top Field First
Bits/(Pixel*Frame)             : 0.114
Stream size                    : 1.11 GiB (89%)
Color range                    : Limited
Color primaries                : BT.709
Transfer characteristics       : BT.709
Matrix coefficients            : BT.709

Audio #1
ID                             : 5002 (0x138A)
Menu ID                        : 13788 (0x35DC)
Format                         : MPEG Audio
Format version                 : Version 1
Format profile                 : Layer 2
Codec ID                       : 4
Duration                       : 26mn 56s
Bit rate mode                  : Constant
Bit rate                       : 192 Kbps
Channel(s)                     : 2 channels
Sampling rate                  : 48.0 KHz
Compression mode               : Lossy
Delay relative to video        : -789ms
Stream size                    : 37.0 MiB (3%)

Audio #2
ID                             : 5003 (0x138B)
Menu ID                        : 13788 (0x35DC)
Format                         : MPEG Audio
Format version                 : Version 1
Format profile                 : Layer 2
Codec ID                       : 4
Duration                       : 26mn 56s
Bit rate mode                  : Constant
Bit rate                       : 192 Kbps
Channel(s)                     : 2 channels
Sampling rate                  : 48.0 KHz
Compression mode               : Lossy
Delay relative to video        : -789ms
Stream size                    : 37.0 MiB (3%)

_________________
webmoney: R102437980674, U865336828210, Bitcoin: 1C5RGE4438bq3VfVUEfcw63rmYrb6Sgr29. Файлы не конвертирую. Готов реанимировать почти все свои раздачи.


Последний раз редактировалось: K. Valera (2015-08-10 14:02), всего редактировалось 1 раз
Profile PM

Lamin80


Стаж: 3 года 9 месяцев

Сообщений: 243

Откуда: Горловка Донецкая Народная Республика

Россия

Торрент-статистика

post 07-Авг-2015 21:14 (спустя 2 часа 56 минут)

Quote


Валера божит как всегда))) скотты в full hd - эт чето новенькое))
Profile PM

vavochkin2


Стаж: 6 лет

Сообщений: 76

Откуда: Москва

Торрент-статистика

post 23-Авг-2015 02:36 (спустя 15 дней)

Quote


Спасибо большое!

PS
Бельгийский язык - это тоже что-то новенькое, но надо же и в Бельгии на чем-то говорить. ab
Profile PM
Ответить на тему