Чемпионат Дании 2015-16 / Alka Superliga / 4-й тур / Обзор матчей / TV3 Sport 1 [13.08.2015, SD, 576, MPEG, DK, SAT]

Ответить на тему

Автор Сообщение

K. Valera


Стаж: 4 года 7 месяцев

Сообщений: 781

Украина

Торрент-статистика

post 14-Авг-2015 10:54

Quote


Чемпионат Дании 2015-16 / Alka Superliga / 4-й тур / Обзор матчей / TV3 Sport 1

Год выпуска: 13.08.2015
Вид спорта: Футбол
Релиз:
Aвтор рипа: K. Valera
Продолжительность: 00:22:53
Канал:
Комментарий: Профессиональный
Язык комментариев: Датский
Качество: SATrip / Формат: *.ts / Видео Кодек: MPEG / Аудио Кодек: MPEG
Видео: 704x576 (16/9), 25,000 fps, 4.9 Мбит/сек
Аудио 1: 192 Kbps, 48 KHz, MPEG mp2 2.0 channels
Запись видео: Openbox SX6 HD
Программа корректировки видео: Cypheros TS-Doctor ver. 1.2.22

Код:

General
ID                             : 10 (0xA)
Complete name                  : D:\111\Fodbold Rundt om runden.4 2015.ts
Format                         : MPEG-TS
File size                      : 796 MiB
Duration                       : 22mn 52s
Overall bit rate mode          : Variable
Overall bit rate               : 4 866 Kbps

Video
ID                             : 1305 (0x519)
Menu ID                        : 2522 (0x9DA)
Format                         : MPEG Video
Format version                 : Version 2
Format profile                 : Main@Main
Format settings, BVOP          : Yes
Format settings, Matrix        : Custom
Format settings, GOP           : Variable
Format settings, picture struc : Frame
Codec ID                       : 2
Duration                       : 22mn 52s
Bit rate mode                  : Variable
Bit rate                       : 4 431 Kbps
Maximum bit rate               : 15.0 Mbps
Width                          : 704 pixels
Height                         : 576 pixels
Display aspect ratio           : 16:9
Frame rate                     : 25.000 fps
Standard                       : PAL
Color space                    : YUV
Chroma subsampling             : 4:2:0
Bit depth                      : 8 bits
Scan type                      : Interlaced
Scan order                     : Top Field First
Compression mode               : Lossy
Bits/(Pixel*Frame)             : 0.437
Stream size                    : 725 MiB (91%)

Audio
ID                             : 3301 (0xCE5)
Menu ID                        : 2522 (0x9DA)
Format                         : MPEG Audio
Format version                 : Version 1
Format profile                 : Layer 2
Codec ID                       : 3
Duration                       : 22mn 52s
Bit rate mode                  : Constant
Bit rate                       : 192 Kbps
Channel(s)                     : 2 channels
Sampling rate                  : 48.0 KHz
Compression mode               : Lossy
Delay relative to video        : 62ms
Stream size                    : 31.4 MiB (4%)
Language                       : Danish

_________________
webmoney: R102437980674, U865336828210, Bitcoin: 1C5RGE4438bq3VfVUEfcw63rmYrb6Sgr29. Файлы не конвертирую. Готов реанимировать почти все свои раздачи.


Последний раз редактировалось: K. Valera (2015-08-18 10:37), всего редактировалось 2 раз(а)
Profile PM

Pepperoni


Стаж: 6 лет

Сообщений: 3322

Откуда: Milan

Италия

Торрент-статистика

post 14-Авг-2015 11:09 (спустя 14 минут)

Quote


Цитата:

Продолжительность: 00:22:53
А было 23-40. Выпало 50 секунд?

_________________
Profile PM

K. Valera


Стаж: 4 года 7 месяцев

Сообщений: 781

Украина

Торрент-статистика

post 14-Авг-2015 11:12 (спустя 3 минуты)

Quote


Прощёлкал начало, рекламу вырезал. Вот и не состыковки. В последнее время я не успеваю за всем.

_________________
webmoney: R102437980674, U865336828210, Bitcoin: 1C5RGE4438bq3VfVUEfcw63rmYrb6Sgr29. Файлы не конвертирую. Готов реанимировать почти все свои раздачи.
Profile PM
Ответить на тему